Payback [HDRip][Castellano/Inglés][Subs ES/EN][1999][Thriller]


Descargar Payback [HDRip][Castellano/Inglés][Subs ES/EN][1999][Thriller] Película Gratis 1 link por Mega y Mediafire



Argentina Warez » Descargas Gratis » Películas Gratis Payback [HDRip][Castellano/Inglés][Subs ES/EN][1999][Thriller]
08-dic-2011
Athizz
Platinum User
Payback [HDRip][Castellano/Inglés][Subs ES/EN][1999][Thriller]



Payback [HDRip][Castellano/Inglés][Subs ES/EN][1999][Thriller]





Val y Porter cometieron un atraco, pero Val quiso quedarse con todo el botín y para ello la mejor opción era eliminar a su compañero. A punto estuvo de conseguirlo, pero ahora Porter regresa con ganas de vengarse de quien le ha robado su dinero y a su mujer. Para conseguir este fin va a contar con la ayuda de Rosie.



AÑO 1999
DURACIÓN 90 min.
PAÍS [Estados Unidos]
DIRECTOR Brian Helgeland
GUIÓN Brian Helgeland & Terry Hayes (Novela:
Richard Stark)
MÚSICA Chris Boardman
FOTOGRAFÍA Ericson Core
REPARTO Mel Gibson, Gregg Henry, Maria Bello, David Paymer,
James Coburn, Deborah Kara Unger, Kris Kristofferson, William Devane, Lucy Liu
PRODUCTORA Warner Bros.
Pictures presenta una producción Icon
GÉNERO Thriller | Remake




Código:
Format                                   : AVI
Format/Info                              : Audio Video Interleave
File size                                : 1.59 GiB
Duration                                 : 1h 41mn
Overall bit rate                         : 2 244 Kbps
  
Video
ID                                       : 0
Format                                   : MPEG-4 Visual
Format profile                           : Advanced Simple@L5
Format settings, BVOP                    : 2
Format settings, QPel                    : Yes
Format settings, GMC                     : No warppoints
Format settings, Matrix                  : Custom
Muxing mode                              : Packed bitstream
Codec ID                                 : XVID
Codec ID/Hint                            : XviD
Duration                                 : 1h 41mn
Bit rate                                 : 1 337 Kbps
Width                                    : 720 pixels
Height                                   : 304 pixels
Display aspect ratio                     : 2.35:1
Frame rate                               : 23.976 fps
Color space                              : YUV
Chroma subsampling                       : 4:2:0
Bit depth                                : 8 bits
Scan type                                : Progressive
Compression mode                         : Lossy
Bits/(Pixel*Frame)                       : 0.255
Stream size                              : 969 MiB (60%)
Writing library                          : XviD 64
  
Audio #1
ID                                       : 1
Format                                   : AC-3
Format/Info                              : Audio Coding 3
Mode extension                           : CM (complete main)
Codec ID                                 : 2000
Duration                                 : 1h 41mn
Bit rate mode                            : Constant
Bit rate                                 : 448 Kbps
Channel(s)                               : 6 channels
Channel positions                        : Front: L C R, Side: L R, LFE
Sampling rate                            : 48.0 KHz
Bit depth                                : 16 bits
Compression mode                         : Lossy
Stream size                              : 325 MiB (20%)
Alignment                                : Aligned on interleaves
Interleave, duration                     : 64 ms (1.53 video frames)
Interleave, preload duration             : 192 ms
Title                                    : Spanish AC3 5.1
  
Audio #2
ID                                       : 2
Format                                   : AC-3
Format/Info                              : Audio Coding 3
Mode extension                           : CM (complete main)
Codec ID                                 : 2000
Duration                                 : 1h 41mn
Bit rate mode                            : Constant
Bit rate                                 : 448 Kbps
Channel(s)                               : 6 channels
Channel positions                        : Front: L C R, Side: L R, LFE
Sampling rate                            : 48.0 KHz
Bit depth                                : 16 bits
Compression mode                         : Lossy
Stream size                              : 325 MiB (20%)
Alignment                                : Aligned on interleaves
Interleave, duration                     : 64 ms (1.53 video frames)
Interleave, preload duration             : 192 ms
Title                                    : English AC3 5.1







Links Intercambiables!!



http://www.filesonic.com/file/4137302524
http://www.filesonic.com/file/4137303084




http://www.uploadstation.com/file/F4AuBgt
http://www.uploadstation.com/file/GNycXkx



Descargar Payback [HDRip][Castellano/Inglés][Subs ES/EN][1999][Thriller] Pelicula Gratis



Necesitás estar Registrado para dejar comentarios en la descarga Payback [HDRip][Castellano/Inglés][Subs ES/EN][1999][Thriller]

Información del Post