Arena: Combate mortal [2011][Dvdrip][Castellano AC3 5.1][Accion]


Descargar Arena: Combate mortal [2011][Dvdrip][Castellano AC3 5.1][Accion] Película Gratis 1 link por Mega y Mediafire



Argentina Warez » Descargas Gratis » Películas Gratis Arena: Combate mortal [2011][Dvdrip][Castellano AC3 5.1][Accion]
21-dic-2011
magicbibi
Black User
Arena: Combate mortal [2011][Dvdrip][Castellano AC3 5.1][Accion]

Arena: Combate mortal






Código:
TÍTULO ORIGINAL	Arena
AÑO	2011
DURACIÓN	94 min.
DIRECTOR	Jonah Loop
GUIÓN	Tony Giglio, Michael Hultquist
MÚSICA	Jeff Danna
FOTOGRAFÍA	Nelson Cragg
REPARTO	Kellan Lutz, Samuel L. Jackson, Nina Dobrev, James Remar, Daniel Dae Kim
PRODUCTORA	Motion Picture Corporation of America (MPCA) / Zero Gravity Management / RCR Media Group
GÉNERO	Acción. Thriller


David Lord (Kellan Lutz) se ve obligado a formar parte de un salvaje mundo de modernos gladiadores donde hombres secuestrados luchan a muerte en pos del entretenimiento de las masas que ven un programa de televisión.

Código:
General
Complete name                            : /Arena.DVDRip.Castellano.MagicBibi.avi
Format                                   : AVI
Format/Info                              : Audio Video Interleave
File size                                : 1.60 GiB
Duration                                 : 1h 34mn
Overall bit rate                         : 2 426 Kbps
Writing application                      : VirtualDubMod 1.5.10.2 (build 2540/release)
Writing library                          : VirtualDubMod build 2540/release

Video
ID                                       : 0
Format                                   : MPEG-4 Visual
Format profile                           : Advanced Simple@L5
Format settings, BVOP                    : 1
Format settings, QPel                    : No
Format settings, GMC                     : No warppoints
Format settings, Matrix                  : Default (H.263)
Muxing mode                              : Packed bitstream
Codec ID                                 : XVID
Codec ID/Hint                            : XviD
Duration                                 : 1h 34mn
Bit rate                                 : 1 777 Kbps
Width                                    : 720 pixels
Height                                   : 304 pixels
Display aspect ratio                     : 2.35:1
Frame rate                               : 23.976 fps
Color space                              : YUV
Chroma subsampling                       : 4:2:0
Bit depth                                : 8 bits
Scan type                                : Progressive
Compression mode                         : Lossy
Bits/(Pixel*Frame)                       : 0.339
Stream size                              : 1.17 GiB (73%)
Writing library                          : XviD 64

Audio
ID                                       : 1
Format                                   : AC-3
Format/Info                              : Audio Coding 3
Mode extension                           : CM (complete main)
Codec ID                                 : 2000
Duration                                 : 1h 34mn
Bit rate mode                            : Constant
Bit rate                                 : 640 Kbps
Channel(s)                               : 6 channels
Channel positions                        : Front: L C R, Side: L R, LFE
Sampling rate                            : 48.0 KHz
Bit depth                                : 16 bits
Compression mode                         : Lossy
Delay relative to video                  : 24ms
Stream size                              : 431 MiB (26%)
Alignment                                : Split accross interleaves
Interleave, duration                     : 42 ms (1.00 video frame)
Interleave, preload duration             : 500 ms









http://www.fileserve.com/file/zU2xPTR
http://www.fileserve.com/file/Z4CQykn

http://www.filejungle.com/f/wzZ2kF
http://www.filejungle.com/f/9JT8aa

http://fp.io/e516c63d
http://fp.io/1ea5fam2

Post Creado con Magic Post Creator

Descargar Arena: Combate mortal [2011][Dvdrip][Castellano AC3 5.1][Accion] Pelicula Gratis



Necesitás estar Registrado para dejar comentarios en Arena: Combate mortal [2011][Dvdrip][Castellano AC3 5.1][Accion]

Información del Post

  • Puntos Puntos: 0 |
  • Visitas Visitas: 249 |
  • Autor Publicado por: magicbibi |
  • Categoría: Películas Gratis