Argentina Warez » Descargas Gratis » Películas Gratis El Silencio Del Miedo[2010][DVDRip][Castellano][Thriller][FJ]
24-dic-2011
uplo
Premium User
El Silencio Del Miedo[2010][DVDRip][Castellano][Thriller][FJ]





Filejungle:
Si se caen los links anteriores, mira aqui:
Recomiendo usar JDownloader para la descarga.


Sinopsis:
Alexandra Neldel interpreta en este thriller a Anna, una prestigiosa abogada criminalista debe resolver la muerte de una universitaria que dijo ser violada en una fiesta. Rodeada de estudiantes, deberá descubrir si la chica se suicidó o fue víctima de un asesinato?

Información:
Título : El Silencio Del Miedo
Título Original : Killerjagd
Año : 2010
Director : Elmar Fischer
Reparto : Niklas Kohrt, Mirko Lang, Constantin von Jascheroff, Peter Davor, Alexandra Neldel, Maximilian von Pufendorf, Clemens Schick
Género : Intriga, Thriller
Calidad del vídeo : DVD RIP
Idioma del audio : Español
Tamaño en Mb : 682

MediaInfo:
Código:
Format                                   : AVI
Format/Info                              : Audio Video Interleave
File size                                : 682 MiB
Duration                                 : 1h 23mn
Overall bit rate                         : 1 146 Kbps
Writing application                      : VirtualDubMod 1.5.1.1a (build 1155/release)
Writing library                          : VirtualDub build 32839/release

Video
ID                                       : 0
Format                                   : MPEG-4 Visual
Format profile                           : Advanced Simple@L5
Format settings, BVOP                    : 2
Format settings, QPel                    : No
Format settings, GMC                     : No warppoints
Format settings, Matrix                  : Default (H.263)
Muxing mode                              : Packed bitstream
Codec ID                                 : XVID
Codec ID/Hint                            : XviD
Duration                                 : 1h 23mn
Bit rate                                 : 944 Kbps
Width                                    : 720 pixels
Height                                   : 416 pixels
Display aspect ratio                     : 16:9
Frame rate                               : 25.000 fps
Color space                              : YUV
Chroma subsampling                       : 4:2:0
Bit depth                                : 8 bits
Scan type                                : Progressive
Compression mode                         : Lossy
Bits/(Pixel*Frame)                       : 0.126
Stream size                              : 562 MiB (82%)
Writing library                          : XviD 64

Audio
ID                                       : 1
Format                                   : AC-3
Format/Info                              : Audio Coding 3
Mode extension                           : CM (complete main)
Codec ID                                 : 2000
Duration                                 : 1h 23mn
Bit rate mode                            : Constant
Bit rate                                 : 192 Kbps
Channel(s)                               : 2 channels
Channel positions                        : Front: L R
Sampling rate                            : 48.0 KHz
Bit depth                                : 16 bits
Compression mode                         : Lossy
Stream size                              : 114 MiB (17%)
Alignment                                : Aligned on interleaves
Interleave, duration                     : 40 ms (1.00 video frame)
Interleave, preload duration             : 512 ms


Capturas reales:



Descargar El Silencio Del Miedo[2010][DVDRip][Castellano][Thriller][FJ] Pelicula Gratis



Necesitás estar Registrado para dejar comentarios en El Silencio Del Miedo[2010][DVDRip][Castellano][Thriller][FJ]

Información del Post