Descargar: Tom y Jerry: Rápidos y furiosos [2005] [DVDRip] [Latino]


Descargar Descargar: Tom y Jerry: Rápidos y furiosos [2005] [DVDRip] [Latino] Película Gratis 1 link por Mega y Mediafire



Argentina Warez » Descargas Gratis » Películas Gratis Descargar: Tom y Jerry: Rápidos y furiosos [2005] [DVDRip] [Latino]
08-ene-2012
Edson Ordaz
Black User
Descargar: Tom y Jerry: Rápidos y furiosos [2005] [DVDRip] [Latino]






General
Format : AVI
Format/Info : Audio Video Interleave
File size : 700 Mb
Duration : 1h 14mn
Overall bit rate : 1 313 Kbps

Video
ID : 0
Format : MPEG-4 Visual
Format profile : Advanced Simple@L5
Format settings, BVOP : 1
Format settings, QPel : No
Format settings, GMC : No warppoints
Format settings, Matrix : Custom
Codec ID : XVID
Codec ID/Hint : XviD
Duration : 1h 14mn
Bit rate : 1 188 Kbps
Width : 528 pixels
Height : 400 pixels
Display aspect ratio : 4:3
Frame rate : 23.976 fps
Color space : YUV
Chroma subsampling : 4:2:0
Bit depth : 8 bits
Scan type : Progressive
Compression mode : Lossy
Bits/(Pixel*Frame) : 0.235
Stream size : 634 MiB (91%)
Writing library : XviD 1.1.2 (UTC 2006-11-01)

Audio
ID : 1
Format : MPEG Audio
Format version : Version 1
Format profile : Layer 3
Mode : Joint stereo
Mode extension : MS Stereo
Codec ID : 55
Codec ID/Hint : MP3
Duration : 1h 14mn
Bit rate mode : Variable
Bit rate : 112 Kbps
Nominal bit rate : 128 Kbps
Channel(s) : 2 channels
Sampling rate : 48.0 KHz
Compression mode : Lossy
Stream size : 59.6 MiB (9%)
Alignment : Aligned on interleaves
Interleave, duration : 24 ms (0.58 video frame)
Interleave, preload duration : 164 ms
Writing library : LAME3.98r
Encoding settings : -m j -V 4 -q 2 -lowpass 17 –abr 128
Language : Español Latino



General
Format : AVI
Format/Info : Audio Video Interleave
File size : 700 Mb
Duration : 1h 14mn
Overall bit rate : 1 313 Kbps

Video
ID : 0
Format : MPEG-4 Visual
Format profile : Advanced Simple@L5
Format settings, BVOP : 1
Format settings, QPel : No
Format settings, GMC : No warppoints
Format settings, Matrix : Custom
Codec ID : XVID
Codec ID/Hint : XviD
Duration : 1h 14mn
Bit rate : 1 188 Kbps
Width : 528 pixels
Height : 400 pixels
Display aspect ratio : 4:3
Frame rate : 23.976 fps
Color space : YUV
Chroma subsampling : 4:2:0
Bit depth : 8 bits
Scan type : Progressive
Compression mode : Lossy
Bits/(Pixel*Frame) : 0.235
Stream size : 634 MiB (91%)
Writing library : XviD 1.1.2 (UTC 2006-11-01)

Audio
ID : 1
Format : MPEG Audio
Format version : Version 1
Format profile : Layer 3
Mode : Joint stereo
Mode extension : MS Stereo
Codec ID : 55
Codec ID/Hint : MP3
Duration : 1h 14mn
Bit rate mode : Variable
Bit rate : 112 Kbps
Nominal bit rate : 128 Kbps
Channel(s) : 2 channels
Sampling rate : 48.0 KHz
Compression mode : Lossy
Stream size : 59.6 MiB (9%)
Alignment : Aligned on interleaves
Interleave, duration : 24 ms (0.58 video frame)
Interleave, preload duration : 164 ms
Writing library : LAME3.98r
Encoding settings : -m j -V 4 -q 2 -lowpass 17 –abr 128
Language : Español Latino









Código:
http://www.fileserve.com/file/8j6T5F4   [Parte 1]
http://www.fileserve.com/file/xDUUE4N   [Parte 2]

Descargar Descargar: Tom y Jerry: Rápidos y furiosos [2005] [DVDRip] [Latino] Pelicula Gratis



Necesitás estar Registrado para dejar comentarios en Descargar: Tom y Jerry: Rápidos y furiosos [2005] [DVDRip] [Latino]

Información del Post

  • Puntos Puntos: 0 |
  • Visitas Visitas: 385 |
  • Autor Publicado por: Edson Ordaz |
  • Categoría: Películas Gratis