Actividad Paranormal 3 (2011) [BDRip 1080p][Español Latino 5.1/Ingles DTS][SUbs.Esp]


Descargar Actividad Paranormal 3 (2011) [BDRip 1080p][Español Latino 5.1/Ingles DTS][SUbs.Esp] Película Gratis 1 link por Mega y Mediafire



Argentina Warez » Descargas Gratis » Películas Gratis Actividad Paranormal 3 (2011) [BDRip 1080p][Español Latino 5.1/Ingles DTS][SUbs.Esp]
15-ene-2012
Ch4m4k0
Premium User
Actividad Paranormal 3 (2011) [BDRip 1080p][Español Latino 5.1/Ingles DTS][SUbs.Esp]




Katie y Kristi han enfrentado, cada una en su propio hogar, los ataques de una entidad paranormal que parece estar vínculada fuertemente a las dos. Sin embargo, dicha presencia ha estado con ellas desde antes de lo que muchos imaginan y un nuevo grupo de cintas revelan lo que las dos hermanas vivieron cuando eran niñas y las circunstancias en las que los eventos paranormales ocurrieron por primera vez alrededor de las pequeñas.



TÍTULO ORIGINAL: Paranormal Activity 3
AÑO: 2011
DURACIÓN: 83 min.
PAÍS: EEUU
DIRECTOR: Henry Joost, Ariel Schulman
GUIÓN: Christopher B. Landon, Michael R. Perry (Personajes: Oren Peli)
FOTOGRAFÍA: Magdalena Gorka Bonacorso
REPARTO: Katie Featherston, Sprague Grayden, Mark Fredrichs, Lauren Bittner
PRODUCTORA: Blumhouse Productions / Paramount Pictures
GÉNERO: Terror | Precuela. Sobrenatural. Fantasmas



Código:
General
Unique ID                                : 178537332461734022487192582783805405717 (0x86510A1B3960B37EA5B44BB0798FBA15)
Complete name                            : F:\Descargas\Actividad Paranormal 3\Actividad.Paranormal3-BDRip 1080p-Chamako.mkv
Format                                   : Matroska
Format version                           : Version 2
File size                                : 11.1 GiB
Duration                                 : 1h 33mn
Overall bit rate                         : 17.0 Mbps
Movie name                               : Chamako - Actividad Paranormal 3 BDRip 1080p Latino
Encoded date                             : UTC 2012-01-15 17:06:05
Writing application                      : mkvmerge v4.4.0 ('Die Wiederkehr') built on Oct 31 2010 21:52:48
Writing library                          : libebml v1.0.0 + libmatroska v1.0.0

Video
ID                                       : 1
Format                                   : AVC
Format/Info                              : Advanced Video Codec
Format profile                           : High@L4.1
Format settings, CABAC                   : Yes
Format settings, ReFrames                : 4 frames
Muxing mode                              : Header stripping
Codec ID                                 : V_MPEG4/ISO/AVC
Duration                                 : 1h 33mn
Bit rate                                 : 15.0 Mbps
Width                                    : 1 920 pixels
Height                                   : 1 080 pixels
Display aspect ratio                     : 16:9
Frame rate                               : 23.976 fps
Color space                              : YUV
Chroma subsampling                       : 4:2:0
Bit depth                                : 8 bits
Scan type                                : Progressive
Bits/(Pixel*Frame)                       : 0.302
Stream size                              : 9.62 GiB (86%)
Title                                    : Chamako - Actividad Paranormal 3 BDRip 1080p
Writing library                          : x264 core 120 r2120 0c7dab9
Encoding settings                        : cabac=1 / ref=4 / deblock=1:-3:-3 / analyse=0x3:0x133 / me=umh / subme=10 / psy=1 / psy_rd=0.90:0.00 / mixed_ref=1 / me_range=64 / chroma_me=1 / trellis=2 / 8x8dct=1 / cqm=0 / deadzone=21,11 / fast_pskip=0 / chroma_qp_offset=-2 / threads=12 / sliced_threads=0 / nr=0 / decimate=0 / interlaced=0 / bluray_compat=0 / constrained_intra=0 / bframes=7 / b_pyramid=2 / b_adapt=2 / b_bias=0 / direct=3 / weightb=1 / open_gop=0 / weightp=2 / keyint=240 / keyint_min=24 / scenecut=40 / intra_refresh=0 / rc_lookahead=120 / rc=2pass / mbtree=1 / bitrate=15000 / ratetol=1.0 / qcomp=0.80 / qpmin=0 / qpmax=69 / qpstep=4 / cplxblur=20.0 / qblur=0.5 / ip_ratio=1.40 / aq=1:1.10
Language                                 : English
Default                                  : No
Forced                                   : No

Audio #1
ID                                       : 2
Format                                   : AC-3
Format/Info                              : Audio Coding 3
Mode extension                           : CM (complete main)
Muxing mode                              : Header stripping
Codec ID                                 : A_AC3
Duration                                 : 1h 33mn
Bit rate mode                            : Constant
Bit rate                                 : 448 Kbps
Channel(s)                               : 6 channels
Channel positions                        : Front: L C R, Side: L R, LFE
Sampling rate                            : 48.0 KHz
Bit depth                                : 16 bits
Compression mode                         : Lossy
Stream size                              : 301 MiB (3%)
Title                                    : Latino 5.1
Language                                 : Spanish
Default                                  : Yes
Forced                                   : Yes

Audio #2
ID                                       : 3
Format                                   : DTS
Format/Info                              : Digital Theater Systems
Muxing mode                              : Header stripping
Codec ID                                 : A_DTS
Duration                                 : 1h 33mn
Bit rate mode                            : Constant
Bit rate                                 : 1 510 Kbps
Channel(s)                               : 6 channels
Channel positions                        : Front: L C R, Side: L R, LFE
Sampling rate                            : 48.0 KHz
Bit depth                                : 24 bits
Compression mode                         : Lossy
Stream size                              : 1 015 MiB (9%)
Title                                    : Chamako - DTS
Language                                 : English
Default                                  : No
Forced                                   : No

Text #1
ID                                       : 4
Format                                   : UTF-8
Codec ID                                 : S_TEXT/UTF8
Codec ID/Info                            : UTF-8 Plain Text
Title                                    : Spanish
Language                                 : Spanish
Default                                  : No
Forced                                   : No

Text #2
ID                                       : 5
Format                                   : UTF-8
Codec ID                                 : S_TEXT/UTF8
Codec ID/Info                            : UTF-8 Plain Text
Title                                    : English
Language                                 : English
Default                                  : No
Forced                                   : No








Instrucciones de Descarga

Añadir el link al Jdownloader, y empieza a descargar del host que mas te agrade

26 PARTES INTERCAMBIABLES

Descargar Actividad Paranormal 3 2011 BDRip 1080p Español Latino 5.1/Ingles DTS Sub.Esp By CHamako

CONTRASEÑA: Chamako
LA C "Mayuscula" lo demás minúscula, no copiar y pegar, escribir manualmente

Si Algun link cae solo enviame un MP con el link del post y lo resubiré

Descargar Actividad Paranormal 3 (2011) [BDRip 1080p][Español Latino 5.1/Ingles DTS][SUbs.Esp] Pelicula Gratis



Necesitás estar Registrado para dejar comentarios en Actividad Paranormal 3 (2011) [BDRip 1080p][Español Latino 5.1/Ingles DTS][SUbs.Esp]

Información del Post