Mi Nombre Es Khan (BRRip | Latino | 1 Link | LIB/UL)


Descargar Mi Nombre Es Khan (BRRip | Latino | 1 Link | LIB/UL) Película Gratis 1 link por Mega y Mediafire



Argentina Warez » Descargas Gratis » Películas Gratis Mi Nombre Es Khan (BRRip | Latino | 1 Link | LIB/UL)
27-ene-2012
JonUp
Premier User
Mi Nombre Es Khan (BRRip | Latino | 1 Link | LIB/UL)



Código:
TÍTULO ORIGINAL: My Name Is Khan AÑO: 2010 DURACIÓN: 130 min. PAÍS: India DIRECTOR: Karan Johar GUIÓN: Shibani Bathija, Niranjan Iyengar MÚSICA: Shankar Ehsaan Loy FOTOGRAFÍA: Ravi K. Chandran REPARTO: Shahrukh Khan, Kajol, Christopher B. Duncan, Steffany Huckaby, Carl Marino PRODUCTORA: Dharma Productions WEB OFICIAL: minombreeskhan.es/ GÉNERO: Romance. Drama | Drama romántico. Enfermedad. Terrorismo. 11-S. Discapacidad. Racismo

Código:
Rizwan Khan (Tanay Chheda) es un niño musulmán que se crió con su madre (Zarina Wahab) en el Borivali sección de Bombay en la India y que sufre de síndrome de Asperger. Ya como un adulto (Shahrukh Khan), Rizwan se enamora de un hindú madre soltera, Mandira (kajol) que vive en San Francisco. Después de los atentados del 9/11, Rizwan es detenido como sospechoso de terrorismo por la autoridades por la conducta sospechosa que tiene a razon de su discapacidad. Después de su arresto, él se reúne con Radha (Sheetal Menon), un terapeuta que ayuda a superar los traumas vividos. Rizwan entonces comienza un viaje para encontrar y reunirse con el Presidente Barack Obama (Christopher B. Duncan), a fin de limpiar su nombre.



Código:
General Complete name : /disco3/joseuplo/public_html/rapidleech/files/Descargas-Directas/Khan.BRRip.Lat.avi Format : AVI Format/Info : Audio Video Interleave File size : 968 MiB Duration : 2h 35mn Overall bit rate : 873 Kbps Writing application : VirtualDubMod 1.5.10.2 (build 2540/release) Writing library : VirtualDubMod build 2540/release Video ID : 0 Format : MPEG-4 Visual Format profile : Advanced Simple@L5 Format settings, BVOP : 1 Format settings, QPel : No Format settings, GMC : No warppoints Format settings, Matrix : Custom Codec ID : XVID Codec ID/Hint : XviD Duration : 2h 35mn Bit rate : 751 Kbps Width : 656 pixels Height : 288 pixels Display aspect ratio : 2.25:1 Frame rate : 25.000 fps Original frame rate : 24.000 fps Color space : YUV Chroma subsampling : 4:2:0 Bit depth : 8 bits Scan type : Progressive Compression mode : Lossy Bits/(Pixel*Frame) : 0.159 Stream size : 833 MiB (86%) Writing library : XviD 64 Audio ID : 1 Format : MPEG Audio Format version : Version 1 Format profile : Layer 3 Mode : Joint stereo Mode extension : MS Stereo Codec ID : 55 Codec ID/Hint : MP3 Duration : 2h 35mn Bit rate mode : Constant Bit rate : 112 Kbps Channel(s) : 2 channels Sampling rate : 44.1 KHz Compression mode : Lossy Delay relative to video : 9s 900ms Stream size : 124 MiB (13%) Alignment : Split accross interleaves Interleave, duration : 40 ms (1.00 video frame) Interleave, preload duration : 500 ms



Código:
http://letitbit.net/download/66774.630d12caa541e741e032deeca61f/Khan.BRRip.Lat.avi.html

Código:
http://ul.to/4ku1pwe7

Descargar Mi Nombre Es Khan (BRRip | Latino | 1 Link | LIB/UL) Pelicula Gratis


08-abr-2012
Ale Magno
Helper
Re: Mi Nombre Es Khan (BRRip | Latino | 1 Link | LIB/UL)
Bajando!! me dijeron q esta muy buena esta peli.. gracias por compartir
08-abr-2012
smms68
Premier User
Re: Mi Nombre Es Khan (BRRip | Latino | 1 Link | LIB/UL)
21-abr-2012
anii1717
White User
Re: Mi Nombre Es Khan (BRRip | Latino | 1 Link | LIB/UL)
excelente aporte... muchas gracias
24-abr-2012
yato23
Baneado ;(
Re: Mi Nombre Es Khan (BRRip | Latino | 1 Link | LIB/UL)
Gracias
03-may-2012
katuta
New User
Re: Mi Nombre Es Khan (BRRip | Latino | 1 Link | LIB/UL)
Me recomendaron ésta película, Gracias por subirla!!
05-may-2012
tonchisfree
New User
Re: Mi Nombre Es Khan (BRRip | Latino | 1 Link | LIB/UL)
Hola no puedo descargar la pelicula me podrias ayudar porfis?
27-nov-2012
guraco
Top User
Re: Mi Nombre Es Khan (BRRip | Latino | 1 Link | LIB/UL)
enlaces caidos

Necesitás estar Registrado para dejar comentarios en Mi Nombre Es Khan (BRRip | Latino | 1 Link | LIB/UL)

Información del Post