Argentina Warez » Descargas Gratis » Películas Gratis Detrás de las paredes [2011][Latino][DVDRip]
08-feb-2012
wapintekun10
Black User
Detrás de las paredes [2011][Latino][DVDRip]





Título: Detrás de las paredes
Título original: Dream House
País: USA
Estreno en USA: 30/09/2011
Estreno en España: 04/11/2011
Productora: Universal Pictures, Morgan Creek, Warner Bros.
Director: Jim Sheridan
Guión: David Loucka
Reparto: Naomi Watts, Rachel Weisz, Daniel Craig, Rachel G. Fox, Marton Csokas, Claire Geare, Taylor Geare, Mark Wilson, Jonathan Potts, Lynne Griffin
Calificación: No recomendadad para menores de 12 años
Audio: Español Latino
Género: thriller
Calidad: DVDRip




Código:
General
Complete name                    : Detras_de_Las_Paredes_Dvdrip_Latino.avi
Format                           : AVI
Format/Info                      : Audio Video Interleave
File size                        : 699 MiB
Duration                         : 1h 31mn
Overall bit rate                 : 1 063 Kbps
Writing application              : VirtualDubMod 1.5.10.2 (build 2540/release)
Writing library                  : VirtualDubMod build 2540/release

Video
ID                               : 0
Format                           : MPEG-4 Visual
Format profile                   : Advanced Simple@L5
Format settings, BVOP            : 1
Format settings, QPel            : No
Format settings, GMC             : No warppoints
Format settings, Matrix          : Custom
Codec ID                         : XVID
Codec ID/Hint                    : XviD
Duration                         : 1h 31mn
Bit rate                         : 925 Kbps
Width                            : 720 pixels
Height                           : 304 pixels
Display aspect ratio             : 2.35:1
Frame rate                       : 23.976 fps
Color space                      : YUV
Chroma subsampling               : 4:2:0
Bit depth                        : 8 bits
Scan type                        : Progressive
Compression mode                 : Lossy
Bits/(Pixel*Frame)               : 0.176
Stream size                      : 608 MiB (87%)
Writing library                  : XviD 64

Audio
ID                               : 1
Format                           : MPEG Audio
Format version                   : Version 1
Format profile                   : Layer 3
Mode                             : Joint stereo
Mode extension                   : MS Stereo
Codec ID                         : 55
Codec ID/Hint                    : MP3
Duration                         : 1h 31mn
Bit rate mode                    : Constant
Bit rate                         : 128 Kbps
Channel(s)                       : 2 channels
Sampling rate                    : 48.0 KHz
Compression mode                 : Lossy
Stream size                      : 84.1 MiB (12%)
Alignment                        : Aligned on interleaves
Interleave, duration             : 42 ms (1.00 video frame)
Interleave, preload duration     : 504 ms


Se dice que las casas tienen recuerdos. Pero hay un hombre que mataría por olvidar su hogar. Daniel Craig, Rachel Weisz y Naomi Watts protagonizan DREAM HOUSE, un thriller de suspense acerca de una familia que se muda a una casa sin saber que ha sido el escenario de varios crímenes espeluznantes. Se convierten en el nuevo objetivo del asesino.

El exitoso editor Will Atenton (Daniel Craig) deja su trabajo en Nueva York para trasladarse con su esposa Libby (Rachel Weisz) y sus dos hijas a una preciosa casa en una pequeña ciudad de Nueva Inglaterra. Empiezan a acostumbrarse a su nueva vida cuando descubren que una madre y sus hijos fueron asesinados en esta casa ideal. Todos los habitantes de la ciudad están convencidos de que el culpable es el único superviviente, el marido.

Will decide investigar con Ann Paterson (Naomi Watts), una vecina amiga de la familia asesinada. Will y Ann empiezan a encajar las piezas del inquietante rompecabezas y no tardan en descubrir que la terrible historia de la última persona en salir de la casa de ensueño se repetirá con la siguiente que entre.












http://rapidgator.net/file/6310835/D...kun10.avi.html




http://freakshare.com/files/rzcxgn6i...kun10.avi.html



Descargar Detrás de las paredes [2011][Latino][DVDRip] Pelicula Gratis



Necesitás estar Registrado para dejar comentarios en Detrás de las paredes [2011][Latino][DVDRip]

Información del Post

  • Puntos Puntos: 0 |
  • Visitas Visitas: 140 |
  • Autor Publicado por: wapintekun10 |
  • Categoría: Películas Gratis