Braveheart [DvdRip] [Castellano] [LB]


Descargar Braveheart [DvdRip] [Castellano] [LB] Película Gratis 1 link por Mega y Mediafire



Argentina Warez » Descargas Gratis » Películas Gratis Braveheart [DvdRip] [Castellano] [LB]
19-mar-2012
PostLeal01
New User
Braveheart [DvdRip] [Castellano] [LB]



General
Complete name : files/Braveheart.DVDRipCastellanoSpanky.avi
Format : AVI
Format/Info : Audio Video Interleave
File size : 701 MiB
Duration : 2h 50mn
Overall bit rate mode : Variable
Overall bit rate : 575 Kbps
Writing application : Nandub v1.0rc2
Writing library : Nandub build 1853/release


Video
ID : 0
Format : MPEG-4 Visual
Format settings, BVOP : 1
Format settings, QPel : No
Format settings, GMC : 2 warppoints
Format settings, Matrix : Default (H.263)
Muxing mode : Packed bitstream
Codec ID : DX50
Codec ID/Hint : DivX 5
Duration : 2h 50mn
Bit rate : 466 Kbps
Width : 720 pixels
Height : 288 pixels
Display aspect ratio : 2.500
Frame rate : 25.000 fps
Color space : YUV
Chroma subsampling : 4:2:0
Bit depth : 8 bits
Scan type : Progressive
Compression mode : Lossy
Bits/(Pixel*Frame) : 0.090
Stream size : 568 MiB (81%)
Writing library : DivX 5.0.2 (UTC 2002-05-16)


Audio
ID : 1
Format : MPEG Audio
Format version : Version 1
Format profile : Layer 3
Mode : Joint stereo
Mode extension : MS Stereo
Codec ID : 55
Codec ID/Hint : MP3
Duration : 2h 50mn
Bit rate mode : Variable
Bit rate : 96.0 Kbps
Channel(s) : 2 channels
Sampling rate : 48.0 KHz
Compression mode : Lossy
Stream size : 117 MiB (17%)
Alignment : Aligned on interleaves
Interleave, duration : 24 ms (0.60 video frame)
Interleave, preload duration : 184 ms
Writing library : LAME3.89 (beta)



http://letitbit.net/download/73232.7...ky%29.avi.html

Descargar Braveheart [DvdRip] [Castellano] [LB] Pelicula Gratis


13-abr-2012
jiorjio81
New User
Re: Braveheart [DvdRip] [Castellano] [LB]
uaaauuu peliculon
24-jun-2012
fernandusco
New User
Re: Braveheart [DvdRip] [Castellano] [LB]
graciasssssssssssssssssssssssssssssssssss

Necesitás estar Registrado para dejar comentarios en Braveheart [DvdRip] [Castellano] [LB]

Información del Post

  • Puntos Puntos: 0 |
  • Visitas Visitas: 601 |
  • Autor Publicado por: PostLeal01 |
  • Categoría: Películas Gratis