Mission Impossible Ghost Protocol (2011) [BDRip 720p][Dual:Latino-English][Mediafire/LB/NL]


Descargar Mission Impossible Ghost Protocol (2011) [BDRip 720p][Dual:Latino-English][Mediafire/LB/NL] Película Gratis 1 link por Mega y Mediafire



Argentina Warez » Descargas Gratis » Películas Gratis Mission Impossible Ghost Protocol (2011) [BDRip 720p][Dual:Latino-English][Mediafire/LB/NL]
08-abr-2012
Basch4553
Silver User
Mission Impossible Ghost Protocol (2011) [BDRip 720p][Dual:Latino-English][MF/JF/UF]
Mission Impossible Ghost Protocol (2011) [BDRip 720p][Dual:Latino-English][Mediafire/JF/UF]




Acusado de atentado terrorista con bombas contra el Kremlin, el agente del IMF Ethan Hunt (Tom Cruise) se ve desautorizado junto con el resto de la organización al iniciar el Presidente el “Protocolo Fantasma”. Sin poder contar con recursos ni apoyo, Ethan deberá encontrar el modo de restaurar el honor de su organización e impedir un nuevo ataque. Para complicar aún más las cosas, Ethan se ve obligado a embarcarse en esta misión junto a un equipo de compañeros del IMF fugitivos cuyos motivos personales no conoce del todo.



Calidad: BDRip 720p
Nombre: Mission.Impossible.Ghost.Protocol.2011.720p.BDRip. LATiNO.ENG.XViD.AC3
Tamaño: 4.7 GB
Video: 1 280 × 528, 3 799 Kbps, 23.976 fps
Audios: Español Latino [AC-3, 640 Kbps, 6 channels] y English [AC-3, 640 Kbps, 6 channels]
Duración: 136 mn
Subtítulos: Español y Español Forzados Apartes en el rar
Género: Acción | Aventura | Thriller
Director: Brad Bird
Reparto: Tom Cruise, Jeremy Renner, Simon Pegg, Paula Patton, Josh Holloway, Michael Nyqvist, Ving Rhames, Tom Wilkinson, Léa Seydoux, Vladimir Mashkov, Anil Kapoor, Michelle Monaghan


Detalles:
Código:
General
Complete name                            : Mission.Impossible.Ghost.Protocol.2011.720p.BDRip.LATiNO.ENG.XViD.AC3.Basch4553.avi
Format                                   : AVI
Format/Info                              : Audio Video Interleave
Format profile                           : OpenDML
File size                                : 4.73 GiB
Duration                                 : 2h 12mn
Overall bit rate                         : 5 092 Kbps
Movie name                               : Mission.Impossible.Ghost.Protocol.2011.720p.BDRip.LATiNO.ENG.XViD.AC3
Recorded date                            : 05-04-2012
Writing application                      : VirtualDubMod 1.5.10.2 (build 2542/release)
Writing library                          : VirtualDubMod build 2542/release

Video
ID                                       : 0
Format                                   : MPEG-4 Visual
Format profile                           : Advanced Simple@L5
Format settings, BVOP                    : 2
Format settings, QPel                    : No
Format settings, GMC                     : No warppoints
Format settings, Matrix                  : Default (MPEG)
Codec ID                                 : XVID
Codec ID/Hint                            : XviD
Duration                                 : 2h 12mn
Bit rate                                 : 3 799 Kbps
Width                                    : 1 280 pixels
Height                                   : 528 pixels
Display aspect ratio                     : 2.40:1
Frame rate                               : 23.976 fps
Color space                              : YUV
Chroma subsampling                       : 4:2:0
Bit depth                                : 8 bits
Scan type                                : Progressive
Compression mode                         : Lossy
Bits/(Pixel*Frame)                       : 0.234
Stream size                              : 3.53 GiB (75%)
Writing library                          : XviD 1.2.1 (UTC 2008-12-04)

Audio #1
ID                                       : 1
Format                                   : AC-3
Format/Info                              : Audio Coding 3
Mode extension                           : CM (complete main)
Codec ID                                 : 2000
Duration                                 : 2h 12mn
Bit rate mode                            : Constant
Bit rate                                 : 640 Kbps
Channel(s)                               : 6 channels
Channel positions                        : Front: L C R, Side: L R, LFE
Sampling rate                            : 48.0 KHz
Bit depth                                : 16 bits
Compression mode                         : Lossy
Stream size                              : 609 MiB (13%)
Alignment                                : Split accross interleaves
Interleave, duration                     : 42 ms (1.00 video frame)
Interleave, preload duration             : 500 ms

Audio #2
ID                                       : 2
Format                                   : AC-3
Format/Info                              : Audio Coding 3
Mode extension                           : CM (complete main)
Codec ID                                 : 2000
Duration                                 : 2h 12mn
Bit rate mode                            : Constant
Bit rate                                 : 640 Kbps
Channel(s)                               : 6 channels
Channel positions                        : Front: L C R, Side: L R, LFE
Sampling rate                            : 48.0 KHz
Bit depth                                : 16 bits
Compression mode                         : Lossy
Stream size                              : 609 MiB (13%)
Alignment                                : Split accross interleaves
Interleave, duration                     : 42 ms (1.00 video frame)
Interleave, preload duration             : 500 ms
Captura:
Spoiler




Links Intercambiables:
Las partes de MF y JF tienen que renombrarlas para Extraer el Archivo

Links 200 MB:
Carpeta Mediafire con las partes.
http://linkto.net/?4155949754fad00e605ec23.88396749
La parte 1 la pueden descargar de cualquiera de los demás servidores


Links 200 MB:
http://linkto.net/?4208768374fad02719354a7.05035319
http://linkto.net/?2590909404fad02719515b1.70506760
http://linkto.net/?9470992234fad02719520c9.63184472
http://linkto.net/?13096030824fad0271952a48.81691260
http://linkto.net/?1907556694fad0271987da4.44336476
http://linkto.net/?13382019064fad0271988c76.47332278
http://linkto.net/?4097530524fad02719b9e50.66347292
http://linkto.net/?6975903134fad02719d29b0.68723181
http://linkto.net/?11872520354fad0271a00de4.94529639
http://linkto.net/?2086054094fad0271a01717.98529008
http://linkto.net/?17030854004fad0271a25e01.68624754
http://linkto.net/?4802334164fad0271a3e2a9.55051885
http://linkto.net/?19348792204fad0271a3ebd3.99160175
http://linkto.net/?6088746274fad0271a3f4f6.84651103
http://linkto.net/?13022664904fad0271a3fe43.14334793
http://linkto.net/?4364547834fad0271a41421.20795368
http://linkto.net/?3350421774fad0271a41d45.39045074
http://linkto.net/?14638709574fad0271a42672.45160958
http://linkto.net/?6190207354fad0271a42f68.31002768
http://linkto.net/?7930322824fad0271a72c79.18226352
http://linkto.net/?12531337704fad0271aa20a4.56683758
http://linkto.net/?9921816204fad0271ac5dc5.06785582
http://linkto.net/?17049079744fad0271aee5c5.19697897
http://linkto.net/?252119244fad0271aef077.98885606
http://linkto.net/?8847215044fad0271aef9c5.57438262
http://linkto.net/?27597054fad0271af02d0.77539103
La parte 1 la pueden descargar de cualquiera de los demás servidores


5 Links:
http://linkto.net/?3718142344ff419c9905f68.27804299
http://linkto.net/?6692221824ff419c991d2f9.15128047
http://linkto.net/?2596153254ff419c991df95.50884544
http://linkto.net/?119826814ff419c9933542.72037701
http://linkto.net/?3307086134ff419c9933fd3.73036501
Links 200 MB:
http://linkto.net/?19814009784ff41a12dcef63.45640707
http://linkto.net/?20790224524ff41a12dd6648.93680581
http://linkto.net/?3943847604ff41a12e08ff3.83695481
http://linkto.net/?4300017344ff41a12e1c878.84464177
http://linkto.net/?12764276374ff41a12e323d5.71591012
http://linkto.net/?15086004784ff41a12e43b23.35153478
http://linkto.net/?20080440664ff41a12e444d8.74660332
http://linkto.net/?11213116554ff41a12e5a966.91480384
http://linkto.net/?5779145804ff41a12e7b8f5.69300134
http://linkto.net/?523995404ff41a12ebe653.00587777
http://linkto.net/?348202484ff41a12ebf121.33095831
http://linkto.net/?13407025234ff41a12ebfae5.07370981
http://linkto.net/?1627858814ff41a13120931.01995120
http://linkto.net/?20872523514ff41a131218a6.95159309
http://linkto.net/?20083585844ff41a131689a4.75879245
http://linkto.net/?5991127644ff41a131693a5.56633571
http://linkto.net/?11599153764ff41a13195ec3.00299022
http://linkto.net/?17198278634ff41a13196813.56618334
http://linkto.net/?9490576694ff41a13197159.46294140
http://linkto.net/?11123781224ff41a13197e33.76843291
http://linkto.net/?15878789794ff41a131ede90.20837551
http://linkto.net/?6779685094ff41a131ee874.09175805
http://linkto.net/?8000196114ff41a131efd40.98329167
http://linkto.net/?725693674ff41a131f0673.72610124
http://linkto.net/?14189115564ff41a1320b3b5.92977696

¡Saludos!

Descargar Mission Impossible Ghost Protocol (2011) [BDRip 720p][Dual:Latino-English][Mediafire/LB/NL] Pelicula Gratis



Necesitás estar Registrado para dejar comentarios en la descarga Mission Impossible Ghost Protocol (2011) [BDRip 720p][Dual:Latino-English][Mediafire/LB/NL]

Información del Post

  • Puntos Puntos: 0 |
  • Visitas Visitas: 416 |
  • Autor Publicado por: Basch4553 |
  • Categoría: Películas Gratis