Yo, el mejor (Muhammad Ali) (1977) (Drama) [DVBRip] [Castellano AC3]


Descargar Yo, el mejor (Muhammad Ali) (1977) (Drama) [DVBRip] [Castellano AC3] Película Gratis 1 link por Mega y Mediafire



Argentina Warez » Descargas Gratis » Películas Gratis Yo, el mejor (Muhammad Ali) (1977) (Drama) [DVBRip] [Castellano AC3]
22-abr-2012
kakaflo
Silver User
Yo, el mejor (Muhammad Ali) (1977) (Drama) [DVBRip] [Castellano AC3]



TÍTULO ORIGINAL The Greatest
AÑO 1977
DURACIÓN 101 min.
PAÍS
DIRECTOR Tom Gries, Monte Hellman
GUIÓN Ring Lardner Jr., Bill Gunn (Novela: Muhammad Ali, Richard Durham, Herbert Muhammad)
MÚSICA Michael Masser
FOTOGRAFÍA Harry Stradling Jr.
REPARTO Muhammad Ali, Ernest Borgnine, Sally Bondi, Richard Gullage, Arthur Adams, Dorothy Meyer, Rahaman Ali, Howard Bingham, Richard Venture, Stack Pierce, Ven Medina, Lloyd Wells, Robert Duvall, James Earl Jones
PRODUCTORA Coproducción USA-UK; EMI Films / British Lion Film Corporation
GÉNERO Drama | Biográfico. Deporte. Boxeo

INFO DEL RIPEO
Spoiler
Código:
Format                                   : Matroska
Format version                           : Version 2
File size                                : 954 MiB
Duration                                 : 1h 33mn
Overall bit rate                         : 1 432 Kbps
Writing application                      : Lavf52.94.0
Writing library                          : Lavf52.94.0

Video
ID                                       : 1
Format                                   : AVC
Format/Info                              : Advanced Video Codec
Format profile                           : High@L3.1
Format settings, CABAC                   : Yes
Format settings, ReFrames                : 2 frames
Codec ID                                 : V_MPEG4/ISO/AVC
Duration                                 : 1h 33mn
Bit rate                                 : 1 300 Kbps
Width                                    : 1 024 pixels
Height                                   : 576 pixels
Display aspect ratio                     : 16:9
Frame rate mode                          : Variable
Frame rate                               : 25.000 fps
Color space                              : YUV
Chroma subsampling                       : 4:2:0
Bit depth                                : 8 bits
Scan type                                : Progressive
Bits/(Pixel*Frame)                       : 0.088
Stream size                              : 850 MiB (89%)
Writing library                          : x264 core 112 r1834 a51816a
Encoding settings                        : cabac=1 / ref=2 / deblock=1:0:0 / analyse=0x3:0x113 / me=hex / subme=6 / psy=1 / psy_rd=1.00:0.00 / mixed_ref=0 / me_range=16 / chroma_me=1 / trellis=0 / 8x8dct=1 / cqm=0 / deadzone=21,11 / fast_pskip=1 / chroma_qp_offset=-2 / threads=4 / sliced_threads=0 / nr=0 / decimate=1 / interlaced=0 / constrained_intra=0 / bframes=3 / b_pyramid=0 / b_adapt=1 / b_bias=0 / direct=3 / weightb=1 / open_gop=0 / weightp=2 / keyint=250 / keyint_min=25 / scenecut=40 / intra_refresh=0 / rc_lookahead=40 / rc=2pass / mbtree=1 / bitrate=1300 / ratetol=1.0 / qcomp=0.60 / qpmin=10 / qpmax=51 / qpstep=4 / cplxblur=20.0 / qblur=0.5 / ip_ratio=1.41 / aq=1:1.00
Language                                 : English

Audio
ID                                       : 2
Format                                   : AC-3
Format/Info                              : Audio Coding 3
Mode extension                           : CM (complete main)
Codec ID                                 : A_AC3
Duration                                 : 1h 33mn
Bit rate mode                            : Constant
Bit rate                                 : 128 Kbps
Channel(s)                               : 2 channels
Channel positions                        : Front: L R
Sampling rate                            : 48.0 KHz
Bit depth                                : 16 bits
Compression mode                         : Lossy
Stream size                              : 85.3 MiB (9%)
Language                                 : English

Muhammad Ali (nacido Cassius Marcellus Clay Jr., Louisville, 17 de enero de 1942) es un ex boxeador estadounidense que fue tres veces campeón del mundo de los pesos pesados, categoría en la que está considerado como una de las grandes figuras de la historia del boxeo (la International Boxing Research Organization (IBRO) lo clasificó entre los 10 mejores pesos pesados de la historia y la revista The Ring lo colocó el número 3 de la lista de los mejores boxeadores históricos libra por libra).
Cassius Clay, surgido de los ambientes más marginales de la sociedad americana, alcanzó varias veces el título mundial de campeón de boxeo de todos los pesos. Cambió su nombre por el de Muhammad Ali (o Mohamed Alí) al abrazar la religión musulmana.





Esto quiere decir que puedes descargar varios archivos desde distintos servidores a la vez.Esto resulta muy útil para gente sin cuentas premium o con conexiones lentas.


rakk






ABRE ESTE BLOC DE NOTAS PARA VER LOS ENLACES





SI TENÉIS ALGÚN PROBLEMA CON LOS LINKS, ETC. AVISAD POR MP.

Descargar Yo, el mejor (Muhammad Ali) (1977) (Drama) [DVBRip] [Castellano AC3] Pelicula Gratis


22-abr-2012
smms68
Premier User
Re: Yo, el mejor (Muhammad Ali) (1977) (Drama) [DVBRip] [Castellano AC3]
02-jul-2012
cesarcrespovilla
New User
Re: Yo, el mejor (Muhammad Ali) (1977) (Drama) [DVBRip] [Castellano AC3]
no va ningun link

Necesitás estar Registrado para dejar comentarios en Yo, el mejor (Muhammad Ali) (1977) (Drama) [DVBRip] [Castellano AC3]

Información del Post