Agua para Elefantes [DVDRip-XviD] [Español Latino]


Descargar Agua para Elefantes [DVDRip-XviD] [Español Latino] Película Gratis 1 link por Mega y Mediafire



Argentina Warez » Descargas Gratis » Películas Gratis Agua para Elefantes [DVDRip-XviD] [Español Latino]
10-may-2012
FreakShare89
Top User
Agua para Elefantes [DVDRip-XviD] [Español Latino]






En la época de la Gran Depresión, un joven estudiante de veterinaria se ve obligado a dejar sus estudios tras la muerte de sus padres. Empieza entonces a trabajar para el circo de los hermanos Benzini como veterinario y encargado de los animales. El joven se enamora de Marlena, una amazona que está casada con August, el dueño del circo, un hombre tan carismático como retorcido… Adaptación del aclamado best-seller homónimo de Sara Gruen.




TÍTULO ORIGINAL: Water for Elephants
OTROS TÍTULOS: Agua para Elefantes
AÑO: 2011
DURACIÓN: 122 min.
PAÍS: USA
DIRECTOR: Francis Lawrence
GUIÓN: Richard LaGravenese (Novela: Sara Gruen)
MÚSICA: James Newton Howard
FOTOGRAFÍA: Rodrigo Prieto
REPARTO: Reese Witherspoon, Robert Pattinson, Christoph Waltz, James Frain, Hal Holbrook, Paul Schneider, Ken Foree, Tim Guinee
PRODUCTORA: Fox 2000
GÉNERO: Romance. Drama | Drama romántico. Melodrama. Gran Depresión. Circo. Trenes







DVDRip | XviD | 702 MB | Español Latino | Romance | 2011
Video
ID : 0
Format : MPEG-4 Visual
Format profile : Advanced Simple@L5
Format settings, BVOP : 2
Format settings, QPel : No
Format settings, GMC : No warppoints
Format settings, Matrix : Default (H.263)
Codec ID : XVID
Codec ID/Hint : XviD
Duration : 2h 0mn
Bit rate : 678 Kbps
Width : 640 pixels
Height : 272 pixels
Display aspect ratio : 2.35:1
Frame rate : 23.976 fps
Color space : YUV
Chroma subsampling : 4:2:0
Bit depth : 8 bits
Scan type : Progressive
Compression mode : Lossy
Bits/(Pixel*Frame) : 0.162
Stream size : 584 MiB (83%)
Writing library : XviD 1.2.1 (UTC 2008-12-04)
Audio
ID : 1
Format : MPEG Audio
Format version : Version 1
Format profile : Layer 3
Mode : Joint stereo
Mode extension : MS Stereo
Codec ID : 55
Codec ID/Hint : MP3
Duration : 2h 0mn
Bit rate mode : Constant
Bit rate : 128 Kbps
Channel(s) : 2 channels
Sampling rate : 48.0 KHz
Compression mode : Lossy
Stream size : 110 MiB (16%)
Alignment : Aligned on interleaves
Interleave, duration : 42 ms (1.00 video frame)
Interleave, preload duration : 504 ms
Writing library : LAME3.98r
Encoding settings : -m j -V 4 -q 2 -lowpass 17 -b 128


















Rapidgator


Código:
http://rapidgator.net/file/13388231/Water.Elephnats.DVDRip_Michel_Vai.rar.html



Descargar Agua para Elefantes [DVDRip-XviD] [Español Latino] Pelicula Gratis



Necesitás estar Registrado para dejar comentarios en la descarga Agua para Elefantes [DVDRip-XviD] [Español Latino]

Información del Post

  • Puntos Puntos: 0 |
  • Visitas Visitas: 159 |
  • Autor Publicado por: FreakShare89 |
  • Categoría: Películas Gratis