Argentina Warez » Descargas Gratis » Películas Gratis Buza Caperuza 2 [DVDRip-XviD] [Español Latino]
22-may-2012
FreakShare89
Top User
Buza Caperuza 2 [DVDRip-XviD] [Español Latino]






Mientras Roja se encuentra en una tierra muy lejana entrenando con un misteriosos grupo encubierto llamado “Las hermanas Hood” es llamada por Flippers Girón, Jefe de la Agencia “Felices por siempre” para resolver, en conjunto con El Lobo, el misterioso caso de la desaparición de Hansel y Gretel.




TÍTULO ORIGINAL: Hoodwinked Too! Hood VS. Evil
OTROS TÍTULOS: Caperucita Roja 2 (Hoodwinked Too! Hood VS. Evil) / Buza Caperuza 2
AÑO: 2011
DURACIÓN: 80 min.
PAÍS: USA
DIRECTOR: Mike Disa
GUIÓN: Mike Disa, Cory Edwards, Todd Edwards, Tony Leech
MÚSICA: Murray Gold
FOTOGRAFÍA: Animation
REPARTO: Animation
PRODUCTORA: The Weinstein Company / Blue Yonder Films / HW Two / Kanbar Entertainment
GÉNERO: Animación. Comedia. Infantil | Secuela







DVDRip | XviD | 702 MB | Español Latino | Animación | 2011
Video
ID : 0
Format : MPEG-4 Visual
Format profile : Advanced Simple@L5
Format settings, BVOP : 2
Format settings, QPel : No
Format settings, GMC : No warppoints
Format settings, Matrix : Default (H.263)
Codec ID : XVID
Codec ID/Hint : XviD
Duration : 1h 26mn
Bit rate : 1 000 Kbps
Width : 640 pixels
Height : 352 pixels
Display aspect ratio : 16:9
Frame rate : 23.976 fps
Color space : YUV
Chroma subsampling : 4:2:0
Bit depth : 8 bits
Scan type : Progressive
Compression mode : Lossy
Bits/(Pixel*Frame) : 0.185
Stream size : 618 MiB (88%)
Writing library : XviD 1.2.1 (UTC 2008-12-04)
Audio
ID : 1
Format : MPEG Audio
Format version : Version 1
Format profile : Layer 3
Mode : Joint stereo
Mode extension : MS Stereo
Codec ID : 55
Codec ID/Hint : MP3
Duration : 1h 26mn
Bit rate mode : Constant
Bit rate : 128 Kbps
Channel(s) : 2 channels
Sampling rate : 48.0 KHz
Compression mode : Lossy
Stream size : 79.1 MiB (11%)
Alignment : Aligned on interleaves
Interleave, duration : 42 ms (1.00 video frame)
Interleave, preload duration : 504 ms
Writing library : LAME3.98r
Encoding settings : -m j -V 4 -q 2 -lowpass 17 -b 128























Bitshare


Código:
http://bitshare.com/files/y3zfp7ov/Hoodwinked.Too.Hood.VS.Evil.DVDRip_Michel_Vai.avi.html



Descargar Buza Caperuza 2 [DVDRip-XviD] [Español Latino] Pelicula Gratis


20-ago-2012
wisin1725
Premier User
Re: Buza Caperuza 2 [DVDRip-XviD] [Español Latino]
chido aporte men descargando se te agradece
04-oct-2012
hugro487
White User
Re: Buza Caperuza 2 [DVDRip-XviD] [Español Latino]
Buen aporte Gracias
04-feb-2013
jorgedarkan
White User
Re: Buza Caperuza 2 [DVDRip-XviD] [Español Latino]
bajando men .............gracias...............
25-jun-2013
wisin1725
Premier User
Re: Buza Caperuza 2 [DVDRip-XviD] [Español Latino]
nuevamente aqui men podrias resubirla porfa y +10 esperando respuesta

Necesitás estar Registrado para dejar comentarios en Buza Caperuza 2 [DVDRip-XviD] [Español Latino]

Información del Post

  • Puntos Puntos: 10 |
  • Visitas Visitas: 795 |
  • Autor Publicado por: FreakShare89 |
  • Categoría: Películas Gratis