La Maldicion de la Flor Dorada [2006][DVDRip][.Avi][700 mb][Castellano][Lb]


Descargar La Maldicion de la Flor Dorada [2006][DVDRip][.Avi][700 mb][Castellano][Lb] Película Gratis 1 link por Mega y Mediafire



Argentina Warez » Descargas Gratis » Películas Gratis La Maldicion de la Flor Dorada [2006][DVDRip][.Avi][700 mb][Castellano][Lb]
23-may-2012
skay73
Premier User
La Maldicion de la Flor Dorada [2006][DVDRip][.Avi][700 mb][Castellano][FKS]




Información del archivo en el servidor
Partes: 1
Servidor: Lb
Tamaño: 700 mb

Sinopsis
China, siglo X, dinastía Tang. En vísperas del Festival Chong Yang, el Palacio Imperial se llena de flores doradas. El regreso inesperado del Emperador, con el príncipe Jai, para celebrar la fiesta con su familia, resulta sospechoso, pues su relación con la Emperatriz es muy fría. Durante muchos años, la Emperatriz y el Príncipe heredero Wan, su hijastro, han mantenido una relación ilícita, pero Wan se siente atrapado y sueña con huir del palacio con Chan, la hija del médico Imperial. Mientras tanto, el Príncipe Jai, el hijo fiel, crece preocupado por la salud de la Emperatriz y su obsesión por los crisantemos dorados.

Caps





Ficha Tenica

La maldición de la flor dorada
TÍTULO ORIGINAL Man cheng jin dai huang jin jia (Curse of the Golden Flower)
AÑO 2006
DURACIÓN 114 min.
PAÍS China
DIRECTOR Zhang Yimou
GUIÓN Zhang Yimou (Obra: Yu Cao)
MÚSICA Shigeru Umebayashi
FOTOGRAFÍA Xiaoding Zhao
REPARTO Chow Yun-Fat, Gong Li, Jay Chou, Qin Junjie, Man Li, Ye Liu, Chen Jin, Ni Dahong
PRODUCTORA Distribuida por Sony Pictures Classics
PREMIOS 2006: Nominada al Oscar: Mejor vestuario
GÉNERO Drama. Acción. Aventuras | Siglo X. Drama de época

Datos de ripeo
Código:
L.mal.De_la.for.cas.sk.06.avi
Format                                   : AVI
Format/Info                              : Audio Video Interleave
File size                                : 700 MiB
Duration                                 : 1h 53mn
Overall bit rate mode                    : Variable
Overall bit rate                         : 860 Kbps
Writing application                      : VirtualDubMod 1.5.4.1 (build 2178/release)
Writing library                          : VirtualDubMod build 2178/release

Video
ID                                       : 0
Format                                   : MPEG-4 Visual
Format settings, BVOP                    : 1
Format settings, QPel                    : No
Format settings, GMC                     : No warppoints
Format settings, Matrix                  : Default (H.263)
Muxing mode                              : Packed bitstream
Codec ID                                 : DX50
Codec ID/Hint                            : DivX 5
Duration                                 : 1h 53mn
Bit rate                                 : 744 Kbps
Width                                    : 560 pixels
Height                                   : 240 pixels
Display aspect ratio                     : 2.35:1
Frame rate                               : 25.000 fps
Color space                              : YUV
Chroma subsampling                       : 4:2:0
Bit depth                                : 8 bits
Scan type                                : Progressive
Compression mode                         : Lossy
Bits/(Pixel*Frame)                       : 0.221
Stream size                              : 606 MiB (87%)
Writing library                          : DivX 6.6.1.4

Audio
ID                                       : 1
Format                                   : MPEG Audio
Format version                           : Version 1
Format profile                           : Layer 3
Mode                                     : Joint stereo
Mode extension                           : MS Stereo
Codec ID                                 : 55
Codec ID/Hint                            : MP3
Duration                                 : 1h 53mn
Bit rate mode                            : Variable
Bit rate                                 : 103 Kbps
Nominal bit rate                         : 128 Kbps
Channel(s)                               : 2 channels
Sampling rate                            : 48.0 KHz
Compression mode                         : Lossy
Stream size                              : 83.6 MiB (12%)
Alignment                                : Aligned on interleaves
Interleave, duration                     : 24 ms (0.60 video frame)
Interleave, preload duration             : 179 ms
Writing library                          : LAME3.97 
Encoding settings                        : -m j -V 4 -q 2 -lowpass 17 --abr 128
Descarga



http://freakshare.com/files/1els7vuh...sk.06.rar.html

Nota: Si encuentras un link caído avísame para volverlo a subir

Descargar La Maldicion de la Flor Dorada [2006][DVDRip][.Avi][700 mb][Castellano][Lb] Pelicula Gratis


28-sep-2012
Htur82
New User
Re: La Maldicion de la Flor Dorada [2006][DVDRip][.Avi][700 mb][Castellano][Lb]
link caido
28-sep-2012
skay73
Premier User
Re: La Maldicion de la Flor Dorada [2006][DVDRip][.Avi][700 mb][Castellano][Lb]
Iniciado por Htur82
link caido
ya la resubi .... gracias por avisar

Necesitás estar Registrado para dejar comentarios en la descarga La Maldicion de la Flor Dorada [2006][DVDRip][.Avi][700 mb][Castellano][Lb]

Información del Post