Psicosis [1960][HdRip][.Avi][1.43 gb][Castellano Ac3][LB]


Descargar Psicosis [1960][HdRip][.Avi][1.43 gb][Castellano Ac3][LB] Película Gratis 1 link por Mega y Mediafire



Argentina Warez » Descargas Gratis » Películas Gratis Psicosis [1960][HdRip][.Avi][1.43 gb][Castellano Ac3][LB]
27-may-2012
skay73
Premier User
Psicosis [1960][HdRip][.Avi][1.43 gb][Castellano Ac3][LB]




Información del archivo en el servidor
Partes: 3
Servidor: LB
Tamaño: 1.43 gb

Sinopsis
Una joven secretaria, tras cometer un robo en su empresa, huye de la ciudad y, después de conducir durante horas, decide descansar en un pequeño motel de carretera regentado por un tímido joven llamado Norman. Todo parece normal y tranquilo tanto en el apartado motel como en la casa de al lado en la que viven Norman y su madre, pero las cosas no son lo que parecen.

Caps





Ficha Tenica

TÍTULO ORIGINAL Psycho
AÑO 1960
DURACIÓN 109 min.
PAÍS EE.UU
DIRECTOR Alfred Hitchcock
GUIÓN Joseph Stefano (Novela: Robert Bloch)
MÚSICA Bernard Herrmann
FOTOGRAFÍA John L. Russell (B&W)
REPARTO Anthony Perkins, Janet Leigh, John Gavin, Vera Miles, John McIntire, Martin Balsam, Simon Oakland, Patricia Hitchcock
PRODUCTORA Paramount Pictures
PREMIOS 1960: 4 nominaciones al Oscar: director, actriz sec. (Leigh), fotografía y dir. artística (B&N)
GÉNERO Terror. Intriga | Película de culto. Asesinos en serie

Datos de ripeo
Código:
PS.Sk73_Cas.60.avi
Format                                   : AVI
Format/Info                              : Audio Video Interleave
File size                                : 1.43 GiB
Duration                                 : 1h 44mn
Overall bit rate                         : 1 962 Kbps
Writing application                      : VirtualDubMod 1.5.10.2 (build 2542/release)
Writing library                          : VirtualDubMod build 2542/release

Video
ID                                       : 0
Format                                   : MPEG-4 Visual
Format profile                           : Advanced Simple@L5
Format settings, BVOP                    : 1
Format settings, QPel                    : No
Format settings, GMC                     : No warppoints
Format settings, Matrix                  : Default (MPEG)
Codec ID                                 : XVID
Codec ID/Hint                            : XviD
Duration                                 : 1h 44mn
Bit rate                                 : 1 761 Kbps
Width                                    : 720 pixels
Height                                   : 388 pixels
Display aspect ratio                     : 1.856
Frame rate                               : 25.000 fps
Original frame rate                      : 23.976 fps
Color space                              : YUV
Chroma subsampling                       : 4:2:0
Bit depth                                : 8 bits
Scan type                                : Progressive
Compression mode                         : Lossy
Bits/(Pixel*Frame)                       : 0.252
Stream size                              : 1.28 GiB (90%)
Writing library                          : XviD 1.2.1 (UTC 2008-12-04)

Audio
ID                                       : 1
Format                                   : AC-3
Format/Info                              : Audio Coding 3
Mode extension                           : CM (complete main)
Codec ID                                 : 2000
Duration                                 : 1h 44mn
Bit rate mode                            : Constant
Bit rate                                 : 192 Kbps
Channel(s)                               : 2 channels
Channel positions                        : Front: L R
Sampling rate                            : 48.0 KHz
Bit depth                                : 16 bits
Compression mode                         : Lossy
Delay relative to video                  : 100ms
Stream size                              : 143 MiB (10%)
Alignment                                : Split accross interleaves
Interleave, duration                     : 40 ms (1.00 video frame)
Interleave, preload duration             : 500 ms
Descarga
LB

Parte 1
http://letitbit.net/download/99627.9...part1.rar.html
Parte 2
http://letitbit.net/download/14068.1...part2.rar.html
Parte 3
http://letitbit.net/download/06100.0...part3.rar.html

Nota: Si encuentras un link caído avísame para volverlo a subir

Descargar Psicosis [1960][HdRip][.Avi][1.43 gb][Castellano Ac3][LB] Pelicula Gratis


03-ene-2013
wwilsonp
Black User
Re: Psicosis [1960][HdRip][.Avi][1.43 gb][Castellano Ac3][LB]
El link de la parte 2 no sirve.

Necesitás estar Registrado para dejar comentarios en la descarga Psicosis [1960][HdRip][.Avi][1.43 gb][Castellano Ac3][LB]

Información del Post