Project X (2012) [BDRip 1080p][Español Latino 5.1/Ingles DTS][Sub.Forzados]


Descargar Project X (2012) [BDRip 1080p][Español Latino 5.1/Ingles DTS][Sub.Forzados] Película Gratis 1 link por Mega y Mediafire



Argentina Warez » Descargas Gratis » Películas Gratis Project X (2012) [BDRip 1080p][Español Latino 5.1/Ingles DTS][Sub.Forzados]
03-jun-2012
Ch4m4k0
Premium User
Project X (2012) [BDRip 1080p][Español Latino 5.1/Ingles DTS][Sub.Forzados]




Un grupo de adolescentes, que celebra una fiesta, decide grabarla, pero, de repente, surge una serie de complicaciones

imprevistas.



TÍTULO ORIGINAL: Project X
AÑO: 2012
DURACIÓN: 88 min.
PAÍS: Estados Unidos
DIRECTOR: Nima Nourizadeh
GUIÓN: Matt Drake, Michael Bacall
FOTOGRAFÍA: Ken Seng
REPARTO: Miles Teller, Oliver Cooper, Jonathan Daniel Brown, Kirby Bliss Blanton, Dax Flame, Nichole O'Connor, Thomas

Mann, Alexis Knapp, Jillian Reynolds, Martin Klebba, Rick Shapiro, Caitlin Dulany, Peter MacKenzie
PRODUCTORA: Green Hat Films / Silver Pictures
GÉNERO: Comedia | Cine independiente USA



Código:
General
Unique ID                                : 177260952363951626690651812512092907215 (0x855B37B5798290CD80425E8E593BE6CF)
Complete name                            : F:\NLEP1user7\Project X\1080p\Chamako - Project X EXTENDED 1080p.mkv
Format                                   : Matroska
Format version                           : Version 2
File size                                : 10.1 GiB
Duration                                 : 1h 32mn
Overall bit rate                         : 15.5 Mbps
Movie name                               : Chamako - Proyecto X 2012 BDRip 1080p Latino
Encoded date                             : UTC 2012-06-02 21:45:01
Writing application                      : mkvmerge v3.4.0 ('Rapunzel') built on May 15 2010 09:38:20
Writing library                          : libebml v0.8.0 + libmatroska v0.9.0

Video
ID                                       : 1
Format                                   : AVC
Format/Info                              : Advanced Video Codec
Format profile                           : High@L4.1
Format settings, CABAC                   : Yes
Format settings, ReFrames                : 4 frames
Codec ID                                 : V_MPEG4/ISO/AVC
Duration                                 : 1h 32mn
Bit rate                                 : 13.7 Mbps
Width                                    : 1 920 pixels
Height                                   : 1 080 pixels
Display aspect ratio                     : 16:9
Frame rate                               : 23.976 fps
Color space                              : YUV
Chroma subsampling                       : 4:2:0
Bit depth                                : 8 bits
Scan type                                : Progressive
Bits/(Pixel*Frame)                       : 0.275
Stream size                              : 8.65 GiB (86%)
Title                                    : Chamako - Proyecto X
Writing library                          : x264 core 125 r2200 999b753
Encoding settings                        : cabac=1 / ref=4 / deblock=1:-3:-3 / analyse=0x3:0x133 / me=umh / subme=10 / psy=1 / psy_rd=1.00:0.00 / mixed_ref=1 / me_range=48 / chroma_me=1 / trellis=2 / 8x8dct=1 / cqm=0 / deadzone=21,11 / fast_pskip=1 / chroma_qp_offset=-2 / threads=12 / lookahead_threads=2 / sliced_threads=0 / nr=0 / decimate=0 / interlaced=0 / bluray_compat=0 / constrained_intra=0 / bframes=7 / b_pyramid=2 / b_adapt=2 / b_bias=0 / direct=3 / weightb=1 / open_gop=0 / weightp=2 / keyint=250 / keyint_min=23 / scenecut=40 / intra_refresh=0 / rc_lookahead=60 / rc=2pass / mbtree=0 / bitrate=13658 / ratetol=1.0 / qcomp=0.60 / qpmin=0 / qpmax=69 / qpstep=4 / cplxblur=20.0 / qblur=0.5 / vbv_maxrate=30000 / vbv_bufsize=30000 / nal_hrd=none / ip_ratio=1.50 / pb_ratio=1.30 / aq=1:1.00
Language                                 : English
Default                                  : No
Forced                                   : No

Audio #1
ID                                       : 2
Format                                   : DTS
Format/Info                              : Digital Theater Systems
Codec ID                                 : A_DTS
Duration                                 : 1h 32mn
Bit rate mode                            : Constant
Bit rate                                 : 1 510 Kbps
Channel(s)                               : 6 channels
Channel positions                        : Front: L C R, Side: L R, LFE
Sampling rate                            : 48.0 KHz
Bit depth                                : 24 bits
Compression mode                         : Lossy
Delay relative to video                  : 11ms
Stream size                              : 1 004 MiB (10%)
Title                                    : English DTS
Language                                 : English
Default                                  : No
Forced                                   : No

Audio #2
ID                                       : 3
Format                                   : AC-3
Format/Info                              : Audio Coding 3
Mode extension                           : CM (complete main)
Format settings, Endianness              : Big
Codec ID                                 : A_AC3
Duration                                 : 1h 32mn
Bit rate mode                            : Constant
Bit rate                                 : 384 Kbps
Channel(s)                               : 6 channels
Channel positions                        : Front: L C R, Side: L R, LFE
Sampling rate                            : 48.0 KHz
Bit depth                                : 16 bits
Compression mode                         : Lossy
Stream size                              : 255 MiB (2%)
Title                                    : Latino
Language                                 : Spanish
Default                                  : Yes
Forced                                   : No

Text #1
ID                                       : 4
Format                                   : UTF-8
Codec ID                                 : S_TEXT/UTF8
Codec ID/Info                            : UTF-8 Plain Text
Title                                    : Spanish
Language                                 : Spanish
Default                                  : No
Forced                                   : No

Text #2
ID                                       : 5
Format                                   : UTF-8
Codec ID                                 : S_TEXT/UTF8
Codec ID/Info                            : UTF-8 Plain Text
Title                                    : Forzados
Language                                 : Spanish
Default                                  : Yes
Forced                                   : Yes








ARCHIVO DE RECUPERACIÓN + 1 SFV DE COMPROBACIÓN DE RAR

Añadir el link al Jdownloader o MiPony, y empieza a descargar del host que mas te agrade

JUMBOFILES - TURBOBIT - RAPIDGATOR - FREAKSHARE - BITSHARE

http://071f49cd.urlbeat.net

CONTRASEÑA: chamako (todo minusculas)

Si Algun link cae solo enviame un MP con el link del post y lo resubiré

Descargar Project X (2012) [BDRip 1080p][Español Latino 5.1/Ingles DTS][Sub.Forzados] Pelicula Gratis



Necesitás estar Registrado para dejar comentarios en Project X (2012) [BDRip 1080p][Español Latino 5.1/Ingles DTS][Sub.Forzados]

Información del Post