21 Jump Street (2012) [BDRip 1080p][Español Latino 5.1/Ingles DTS]


Descargar 21 Jump Street (2012) [BDRip 1080p][Español Latino 5.1/Ingles DTS] Película Gratis 1 link



Argentina Warez » Descargas Gratis » Películas Gratis 21 Jump Street (2012) [BDRip 1080p][Español Latino 5.1/Ingles DTS]
09-jun-2012
Ch4m4k0
Premium User
21 Jump Street (2012) [BDRip 1080p][Español Latino 5.1/Ingles DTS]




Schmidt (Jonah Hill) y Jenko (Channing Tatum) son dos tipos que han sido enemigos acérrimos en el instituto, pero que posteriormente se encuentran en la academia de policía y terminan haciéndose amigos. Cuando se gradúan, los destinan a una unidad de la policía secreta llamada ?Jump Street?, comandada por el Capitán Dickson (Ice Cube). En ella tendrán que cambiar sus armas e insignias por mochilas y libros y tendrán que utilizar su apariencia juvenil para infiltrarse en un instituto. El problema es que los jóvenes de hoy no se parecen en nada a los de hace solo unos años atrás, y Schmidt y Jenko descubren que todo lo que creían saber sobre la adolescencia, el sexo, las drogas y el rock & roll, es completamente erróneo. Más aún, ambos se van a dar cuenta de que continúan teniendo los mismos problemas que no resolvieron en sus años de adolescencia por lo que tendrán que enfrentarse al terror y la ansiedad de volver a pasar por
una etapa que ya creían superada.



Título: Infiltrados en clase
Título original: 21 Jump Street
País: USA
Estreno en USA: 16/03/2012
Estreno en España: 11/05/2012
Productora: Sony Pictures
Director: Phil Lord, Chris Miller
Guión: Jonah Hill, Joe Gazzam
Reparto: Jonah Hill, Channing Tatum, Jake M. Johnson, Dave Franco, Ellie Kemper, Brie Larson, Ice Cube, Johnny Simmons, Rob Riggle, Dakota Johnson, Lindsey Broad, DeRay Davis, Valerie Tian, Spencer Boldman
Calificación: No recomendada para menores de 12 años
Genero: Accion, Comedia, Crimen


Código:
General
Unique ID                                : 194708427586533413678993626296980075256 (0x927B7AA70A898A83A938A78BC6F3F2F8)
Complete name                            : Chamako - 21 Jump Street 1080p Latino.mkv
Format                                   : Matroska
Format version                           : Version 2
File size                                : 8.13 GiB
Duration                                 : 1h 49mn
Overall bit rate                         : 10.6 Mbps
Movie name                               : Chamako - 21 Jump Street 1080p Latino
Encoded date                             : UTC 2012-06-09 23:03:39
Writing application                      : mkvmerge v3.4.0 ('Rapunzel') built on May 15 2010 09:38:20
Writing library                          : libebml v0.8.0 + libmatroska v0.9.0

Video
ID                                       : 1
Format                                   : AVC
Format/Info                              : Advanced Video Codec
Format profile                           : High@L4.1
Format settings, CABAC                   : Yes
Format settings, ReFrames                : 5 frames
Codec ID                                 : V_MPEG4/ISO/AVC
Duration                                 : 1h 49mn
Bit rate                                 : 8 467 Kbps
Width                                    : 1 920 pixels
Height                                   : 816 pixels
Display aspect ratio                     : 2.35:1
Frame rate                               : 23.976 fps
Color space                              : YUV
Chroma subsampling                       : 4:2:0
Bit depth                                : 8 bits
Scan type                                : Progressive
Bits/(Pixel*Frame)                       : 0.225
Stream size                              : 6.32 GiB (78%)
Title                                    : Chamako - 21 Jump Street
Writing library                          : x264 core 125 r2200 999b753
Encoding settings                        : cabac=1 / ref=5 / deblock=1:0:0 / analyse=0x3:0x133 / me=umh / subme=8 / psy=1 / psy_rd=1.00:0.00 / mixed_ref=1 / me_range=16 / chroma_me=1 / trellis=1 / 8x8dct=1 / cqm=0 / deadzone=21,11 / fast_pskip=1 / chroma_qp_offset=-2 / threads=24 / lookahead_threads=4 / sliced_threads=0 / nr=0 / decimate=1 / interlaced=0 / bluray_compat=0 / constrained_intra=0 / bframes=3 / b_pyramid=2 / b_adapt=1 / b_bias=0 / direct=1 / weightb=1 / open_gop=0 / weightp=2 / keyint=250 / keyint_min=23 / scenecut=40 / intra_refresh=0 / rc=2pass / mbtree=0 / bitrate=8467 / ratetol=1.0 / qcomp=0.60 / qpmin=0 / qpmax=69 / qpstep=4 / cplxblur=20.0 / qblur=0.5 / ip_ratio=1.40 / pb_ratio=1.30 / aq=1:1.00
Language                                 : English
Default                                  : No
Forced                                   : No

Audio #1
ID                                       : 2
Format                                   : DTS
Format/Info                              : Digital Theater Systems
Codec ID                                 : A_DTS
Duration                                 : 1h 49mn
Bit rate mode                            : Constant
Bit rate                                 : 1 510 Kbps
Channel(s)                               : 6 channels
Channel positions                        : Front: L C R, Side: L R, LFE
Sampling rate                            : 48.0 KHz
Bit depth                                : 24 bits
Compression mode                         : Lossy
Stream size                              : 1.16 GiB (14%)
Title                                    : English DTS
Language                                 : English
Default                                  : No
Forced                                   : No

Audio #2
ID                                       : 3
Format                                   : AC-3
Format/Info                              : Audio Coding 3
Mode extension                           : CM (complete main)
Format settings, Endianness              : Big
Codec ID                                 : A_AC3
Duration                                 : 1h 49mn
Bit rate mode                            : Constant
Bit rate                                 : 640 Kbps
Channel(s)                               : 6 channels
Channel positions                        : Front: L C R, Side: L R, LFE
Sampling rate                            : 48.0 KHz
Bit depth                                : 16 bits
Compression mode                         : Lossy
Stream size                              : 502 MiB (6%)
Title                                    : Latino 5.1
Language                                 : Spanish
Default                                  : Yes
Forced                                   : No

Text
ID                                       : 4
Format                                   : UTF-8
Codec ID                                 : S_TEXT/UTF8
Codec ID/Info                            : UTF-8 Plain Text
Title                                    : Spanish
Language                                 : Spanish
Default                                  : Yes
Forced                                   : No








ARCHIVO DE RECUPERACIÓN + 1 SFV DE COMPROBACIÓN DE RAR
Añadir el link al Jdownloader o MiPony, y empieza a descargar del host que mas te agrade
JUMBOFILES - PUTLOCKER - FREAKSHARE - BITSHARE

Click Aqui para Descargar - 21 Jump Street 1080p Latino

CONTRASEÑA: chamako (todo minusculas)

Si Algun link cae solo enviame un MP con el link del post y lo resubiré

Descargar 21 Jump Street (2012) [BDRip 1080p][Español Latino 5.1/Ingles DTS] Pelicula Gratis



Necesitás estar Registrado para dejar comentarios en 21 Jump Street (2012) [BDRip 1080p][Español Latino 5.1/Ingles DTS]

Información del Post