Furia De Titanes 2 [2012][BDRip 720p]AC3 5.1[Es-LATINO]DTS[En-US][Sub][Acción]


Descargar Furia De Titanes 2 [2012][BDRip 720p]AC3 5.1[Es-LATINO]DTS[En-US][Sub][Acción] Película Gratis 1 link



Argentina Warez » Descargas Gratis » Películas Gratis Furia De Titanes 2 [2012][BDRip 720p]AC3 5.1[Es-LATINO]DTS[En-US][Sub][Acción]
12-jun-2012
cadagoto
Premium User
Furia De Titanes 2 [2012][BDRip 720p]AC3 5.1[Es-LATINO]DTS[En-US][Sub][Acción]

Furia De Titanes 2 [2012][BDRip 720p]AC3 5.1[Es-LATINO]DTS[En-US][Sub][Acción]





Ficha Técnica
-TÍTULO ORIGINAL: Wrath of the Titans (Clash of the Titans 2)
AÑO: 2012
DURACIÓN: 99 min.
PAÍS: Estados Unidos
DIRECTOR: Jonathan Liebesman
GUIÓN: Greg Berlanti
MÚSICA: Javier Navarrete
FOTOGRAFÍA: Ben Davis
REPARTO: Sam Worthington, Liam Neeson, Ralph Fiennes, Bill Nighy, Rosamund Pike, Danny Huston, Toby Kebbell, Édgar Ramírez, John Bell
PRODUCTORA: Warner Bros. Pictures
GÉNERO: Fantástico. Acción | Antigua Grecia. Mitología. Secuela. 3-D


Datos Técnicos

Código:
Aporte Exclusivo Por::::...Cadagoto...::::
General
Unique ID                                : 225482125427510417924337873920413324561 (0xA9A2471936E6AF4788A6668D22AAD511)
Complete name                            : D:\NL2QRB-user 8\CadagotoHD\Furia De Titanes 2 BDRip 720p Español Latino Exclusivo Por Cadagoto\Furia De Titanes 2 BDRip 720p Español Latino Exclusivo Por Cadagoto.mkv
Format                                   : Matroska
Format version                           : Version 2
File size                                : 5.14 GiB
Duration                                 : 1h 39mn
Overall bit rate                         : 7 398 Kbps
Movie name                               : Aporte Exclusivo Por :::...Cadagoto...:::
Encoded date                             : UTC 2012-06-12 08:11:38
Writing application                      : mkvmerge v3.4.0 ('Rapunzel') built on May 15 2010 09:38:20
Writing library                          : libebml v0.8.0 + libmatroska v0.9.0

Video
ID                                       : 1
Format                                   : AVC
Format/Info                              : Advanced Video Codec
Format profile                           : High@L4.1
Format settings, CABAC                   : Yes
Format settings, ReFrames                : 9 frames
Codec ID                                 : V_MPEG4/ISO/AVC
Duration                                 : 1h 39mn
Bit rate                                 : 5 500 Kbps
Width                                    : 1 280 pixels
Height                                   : 720 pixels
Display aspect ratio                     : 16:9
Frame rate                               : 23.976 fps
Color space                              : YUV
Chroma subsampling                       : 4:2:0
Bit depth                                : 8 bits
Scan type                                : Progressive
Bits/(Pixel*Frame)                       : 0.249
Stream size                              : 3.72 GiB (72%)
Title                                    : Aporte Exclusivo Por :::...Cadagoto...:::
Writing library                          : x264 core 125 r2200 999b753
Encoding settings                        : cabac=1 / ref=9 / deblock=1:-3:-3 / analyse=0x3:0x113 / me=umh / subme=10 / psy=1 / psy_rd=1.10:0.00 / mixed_ref=1 / me_range=32 / chroma_me=1 / trellis=2 / 8x8dct=1 / cqm=0 / deadzone=21,11 / fast_pskip=0 / chroma_qp_offset=-2 / threads=18 / lookahead_threads=3 / sliced_threads=0 / nr=0 / decimate=0 / interlaced=0 / bluray_compat=0 / constrained_intra=0 / bframes=8 / b_pyramid=2 / b_adapt=2 / b_bias=0 / direct=3 / weightb=1 / open_gop=0 / weightp=2 / keyint=240 / keyint_min=24 / scenecut=40 / intra_refresh=0 / rc_lookahead=120 / rc=2pass / mbtree=1 / bitrate=5500 / ratetol=1.0 / qcomp=0.70 / qpmin=0 / qpmax=69 / qpstep=4 / cplxblur=20.0 / qblur=0.5 / ip_ratio=1.40 / aq=1:0.80
Language                                 : English
Default                                  : No
Forced                                   : No

Audio #1
ID                                       : 2
Format                                   : AC-3
Format/Info                              : Audio Coding 3
Mode extension                           : CM (complete main)
Format settings, Endianness              : Big
Codec ID                                 : A_AC3
Duration                                 : 1h 39mn
Bit rate mode                            : Constant
Bit rate                                 : 384 Kbps
Channel(s)                               : 6 channels
Channel positions                        : Front: L C R, Side: L R, LFE
Sampling rate                            : 48.0 KHz
Bit depth                                : 16 bits
Compression mode                         : Lossy
Stream size                              : 273 MiB (5%)
Title                                    : AC3 5.1 Español Latino :::...Cadagoto...:::
Default                                  : Yes
Forced                                   : Yes

Audio #2
ID                                       : 3
Format                                   : DTS
Format/Info                              : Digital Theater Systems
Codec ID                                 : A_DTS
Duration                                 : 1h 39mn
Bit rate mode                            : Constant
Bit rate                                 : 1 510 Kbps
Channel(s)                               : 6 channels
Channel positions                        : Front: L C R, Side: L R, LFE
Sampling rate                            : 48.0 KHz
Bit depth                                : 24 bits
Compression mode                         : Lossy
Delay relative to video                  : 11ms
Stream size                              : 1.05 GiB (20%)
Title                                    : DTS-HD Ingles  :::...Cadagoto...:::
Language                                 : English
Default                                  : No
Forced                                   : No

Text #1
ID                                       : 4
Format                                   : UTF-8
Codec ID                                 : S_TEXT/UTF8
Codec ID/Info                            : UTF-8 Plain Text
Title                                    : Sub Español Latino :::...Cadagoto...:::
Default                                  : No
Forced                                   : No

Text #2
ID                                       : 5
Format                                   : PGS
Codec ID                                 : S_HDMV/PGS
Codec ID/Info                            : The same subtitle format used on BDs/HD-DVDs
Language                                 : English
Default                                  : No
Forced                                   : No

Menu
00:00:00.000                             : en:00:00:00.000
00:09:24.856                             : en:00:09:24.856
00:20:07.123                             : en:00:20:07.123
00:30:53.059                             : en:00:30:53.059
00:40:02.316                             : en:00:40:02.316
00:48:46.882                             : en:00:48:46.882
01:00:21.743                             : en:01:00:21.743
01:10:16.420                             : en:01:10:16.420
01:19:18.712                             : en:01:19:18.712
01:30:33.803                             : en:01:30:33.803


Aporte Exclusivo Por::::...Cadagoto...::::

Sinopsis
- Diez años después de los sucesos de “Furia de titanes”, Perseo (Sam Worthington) está decidido a llevar una vida tranquila con su hijo Helio. Sin embargo, los dioses, debilitados por la falta de fe de la humanidad, pierden el control sobre los Titanes, cuyo líder no es otro que Kronos, el padre de Zeus (Liam Neeson), Hades (Ralph Fiennes) y Poseidón (Danny Huston). Cuando Hades y Ares (Edgar Ramírez) llegan a un acuerdo con Kronos para capturar a Zeus, entonces Perseo tendrá que abandonar su apacible vida para rescatarlo, misión en la que mcuenta con la ayuda de Andrómeda (Rosamund Pike), Agénor (Toby Kebbell) y Hefesto (Bill Nighy).














Links Intercambiables De 500 Mb!
(1° Abrir el link en tu NAVEGADOR, ESPERAR 8 SEGUNDOS Y PULSAR ESTO)


¡Descargar AQUI!
http://a170d03d.miniurls.co










Los Archivos .REV Reemplazan A Cualquiera de Los Demas Rars!

¡Aquellos Archivos Sustituyen Partes Off O Dañadas , Úsalos!

Descargar Furia De Titanes 2 [2012][BDRip 720p]AC3 5.1[Es-LATINO]DTS[En-US][Sub][Acción] Pelicula Gratis


12-jun-2012
cadagoto
Premium User
Re: Furia De Titanes 2 [2012][BDRip 720p]AC3 5.1[Es-LATINO]DTS[En-US][Sub][Acción]
En un rato mas por Rapidgator
Saludos

Necesitás estar Registrado para dejar comentarios en Furia De Titanes 2 [2012][BDRip 720p]AC3 5.1[Es-LATINO]DTS[En-US][Sub][Acción]

Información del Post