Furia de Titanes 2 (2012) [BDRip 1080p][Español Latino 5.1/Ingles DTS][Sub.Esp]


Descargar Furia de Titanes 2 (2012) [BDRip 1080p][Español Latino 5.1/Ingles DTS][Sub.Esp] Película Gratis 1 link por Mega y Mediafire



Argentina Warez » Descargas Gratis » Películas Gratis Furia de Titanes 2 (2012) [BDRip 1080p][Español Latino 5.1/Ingles DTS][Sub.Esp]
12-jun-2012
Ch4m4k0
Premium User
Furia de Titanes 2 (2012) [BDRip 1080p][Español Latino 5.1/Ingles DTS][Sub.Esp]




Diez años después de los sucesos de ?Furia de titanes?, Perseo (Sam Worthington) está decidido a llevar una vida tranquila con su hijo Helio. Sin embargo, los dioses, debilitados por la falta de fe de la humanidad, pierden el control sobre los Titanes, cuyo líder no es otro que Kronos, el padre de Zeus (Liam Neeson), Hades (Ralph Fiennes) y Poseidón (Danny Huston). Cuando Hades y Ares (Edgar Ramírez) llegan a un acuerdo con Kronos para capturar a Zeus, entonces Perseo tendrá que abandonar su apacible vida para rescatarlo, misión en la que mcuenta con la ayuda de Andrómeda (Rosamund Pike), Agénor (Toby Kebbell) y Hefesto (Bill Nighy).



TÍTULO ORIGINAL: Wrath of the Titans (Clash of the Titans 2)
OTROS TITULOS: Furia de Titanes 2 / Ira de Titanes 3D
AÑO: 2012
DURACIÓN: 99 min.
PAÍS Estados Unidos
DIRECTOR: Jonathan Liebesman
GUIÓN: Greg Berlanti
MÚSICA: Javier Navarrete
FOTOGRAFÍA: Ben Davis
REPARTO: Sam Worthington, Liam Neeson, Ralph Fiennes, Bill Nighy, Rosamund Pike, Danny Huston, Toby Kebbell, Édgar Ramírez, John Bell
PRODUCTORA: Warner Bros. Pictures
GÉNERO: Fantástico. Acción | Antigua Grecia. Mitología. Secuela. 3-D



Código:
General
Complete name                            : Chamako - Furia de Titanes 2 1080p Latino Chamako.mkv
Format                                   : Matroska
Format version                           : Version 2
File size                                : 10.1 GiB
Duration                                 : 1h 39mn
Overall bit rate                         : 14.5 Mbps
Movie name                               : Chamako - Furia de Titanes 2 1080p Latino
Encoded date                             : UTC 2012-06-12 19:07:00
Writing application                      : mkvmerge v3.4.0 ('Rapunzel') built on May 15 2010 09:38:20
Writing library                          : libebml v0.8.0 + libmatroska v0.9.0

Video
ID                                       : 1
Format                                   : AVC
Format/Info                              : Advanced Video Codec
Format profile                           : High@L4.1
Format settings, CABAC                   : Yes
Format settings, ReFrames                : 4 frames
Codec ID                                 : V_MPEG4/ISO/AVC
Duration                                 : 1h 39mn
Bit rate                                 : 12.6 Mbps
Width                                    : 1 920 pixels
Height                                   : 1 080 pixels
Display aspect ratio                     : 16:9
Frame rate                               : 23.976 fps
Color space                              : YUV
Chroma subsampling                       : 4:2:0
Bit depth                                : 8 bits
Scan type                                : Progressive
Bits/(Pixel*Frame)                       : 0.253
Stream size                              : 8.56 GiB (85%)
Title                                    : Chamako - Furia de Titanes 2 1080p
Writing library                          : x264 core 125 r2200 999b753
Encoding settings                        : cabac=1 / ref=4 / deblock=1:-3:-3 / analyse=0x3:0x113 / me=umh / subme=11 / psy=1 / psy_rd=1.10:0.00 / mixed_ref=1 / me_range=32 / chroma_me=1 / trellis=2 / 8x8dct=1 / cqm=0 / deadzone=21,11 / fast_pskip=0 / chroma_qp_offset=-2 / threads=18 / lookahead_threads=3 / sliced_threads=0 / nr=0 / decimate=0 / interlaced=0 / bluray_compat=0 / constrained_intra=0 / bframes=8 / b_pyramid=2 / b_adapt=2 / b_bias=0 / direct=3 / weightb=1 / open_gop=0 / weightp=2 / keyint=240 / keyint_min=24 / scenecut=40 / intra_refresh=0 / rc_lookahead=120 / rc=2pass / mbtree=1 / bitrate=12600 / ratetol=1.0 / qcomp=0.70 / qpmin=0 / qpmax=69 / qpstep=4 / cplxblur=20.0 / qblur=0.5 / ip_ratio=1.40 / aq=1:0.80
Language                                 : English
Default                                  : No
Forced                                   : No

Audio #1
ID                                       : 2
Format                                   : AC-3
Format/Info                              : Audio Coding 3
Mode extension                           : CM (complete main)
Format settings, Endianness              : Big
Codec ID                                 : A_AC3
Duration                                 : 1h 39mn
Bit rate mode                            : Constant
Bit rate                                 : 384 Kbps
Channel(s)                               : 6 channels
Channel positions                        : Front: L C R, Side: L R, LFE
Sampling rate                            : 48.0 KHz
Bit depth                                : 16 bits
Compression mode                         : Lossy
Stream size                              : 273 MiB (3%)
Title                                    : Latino 5.1
Language                                 : Spanish
Default                                  : Yes
Forced                                   : No

Audio #2
ID                                       : 3
Format                                   : DTS
Format/Info                              : Digital Theater Systems
Codec ID                                 : A_DTS
Duration                                 : 1h 39mn
Bit rate mode                            : Constant
Bit rate                                 : 1 510 Kbps
Channel(s)                               : 6 channels
Channel positions                        : Front: L C R, Side: L R, LFE
Sampling rate                            : 48.0 KHz
Bit depth                                : 24 bits
Compression mode                         : Lossy
Delay relative to video                  : 11ms
Stream size                              : 1.05 GiB (10%)
Title                                    : Chamako - English DTS
Language                                 : English
Default                                  : No
Forced                                   : No

Text #1
ID                                       : 4
Format                                   : PGS
Codec ID                                 : S_HDMV/PGS
Codec ID/Info                            : The same subtitle format used on BDs/HD-DVDs
Title                                    : Chamako - English
Language                                 : English
Default                                  : No
Forced                                   : No

Text #2
ID                                       : 5
Format                                   : UTF-8
Codec ID                                 : S_TEXT/UTF8
Codec ID/Info                            : UTF-8 Plain Text
Title                                    : Spanish
Language                                 : Spanish
Default                                  : Yes
Forced                                   : No

Menu
00:00:00.000                             : en:00:00:00.000
00:09:24.856                             : en:00:09:24.856
00:20:07.123                             : en:00:20:07.123
00:30:53.059                             : en:00:30:53.059
00:40:02.316                             : en:00:40:02.316
00:48:46.882                             : en:00:48:46.882
01:00:21.743                             : en:01:00:21.743
01:10:16.420                             : en:01:10:16.420
01:19:18.712                             : en:01:19:18.712
01:30:33.803                             : en:01:30:33.803








ARCHIVO DE RECUPERACIÓN + 1 SFV DE COMPROBACIÓN DE RAR

PUTLOCKER - JUMBOFILES - RAPIDGATOR - FREAKSHARE - TURBOBIT - BITSHARE

Click Aqui para Descargar - Furia de Titanes 2 BDRip 1080p Latino/Ingles By Chamako

CONTRASEÑA: chamako (todo minusculas)

Si Algun link cae solo enviame un MP con el link del post y lo resubiré

Descargar Furia de Titanes 2 (2012) [BDRip 1080p][Español Latino 5.1/Ingles DTS][Sub.Esp] Pelicula Gratis


13-jun-2012
joshua-dim
New User
Re: Furia de Titanes 2 (2012) [BDRip 1080p][Español Latino 5.1/Ingles DTS][Sub.Esp]
gracias por tu aporte, tus aportes son perfectos
15-jun-2012
Re: Furia de Titanes 2 (2012) [BDRip 1080p][Español Latino 5.1/Ingles DTS][Sub.Esp]
Me ha tomado 3 dias de tener la pc prendida desde la madrugada hasta la noche para que al momento de descomprimir me salga que esta dañada la parte 9, 11, 15, 16, 17, 18 y 19.
Las he vuelto a bajar desde otro servidor y pasa lo mismo. Desde Turbobit, jumbofiles y putlocker que son los 3 mejores host de descarga, me salio que estan con fallo.
Ahora, si bajo desde alguno de los restantes me pasaría 3 dias mas para descargar esos 7 links dañados.
Se agradece el esfuerzo, pero no me sirvió.
Saludos.
16-jun-2012
Ch4m4k0
Premium User
Re: Furia de Titanes 2 (2012) [BDRip 1080p][Español Latino 5.1/Ingles DTS][Sub.Esp]
Iniciado por claudiobolsilludo
Me ha tomado 3 dias de tener la pc prendida desde la madrugada hasta la noche para que al momento de descomprimir me salga que esta dañada la parte 9, 11, 15, 16, 17, 18 y 19.
Las he vuelto a bajar desde otro servidor y pasa lo mismo. Desde Turbobit, jumbofiles y putlocker que son los 3 mejores host de descarga, me salio que estan con fallo.
Ahora, si bajo desde alguno de los restantes me pasaría 3 dias mas para descargar esos 7 links dañados.
Se agradece el esfuerzo, pero no me sirvió.
Saludos.
Es raro lo que te pasa, no se que pueda ser a menos que se termine mal de descargar con esas partes. Otros ya la han bajado y reproducido sin problemas.
17-jun-2012
maverid
White User
Re: Furia de Titanes 2 (2012) [BDRip 1080p][Español Latino 5.1/Ingles DTS][Sub.Esp]
Iniciado por claudiobolsilludo
Me ha tomado 3 dias de tener la pc prendida desde la madrugada hasta la noche para que al momento de descomprimir me salga que esta dañada la parte 9, 11, 15, 16, 17, 18 y 19.
Las he vuelto a bajar desde otro servidor y pasa lo mismo. Desde Turbobit, jumbofiles y putlocker que son los 3 mejores host de descarga, me salio que estan con fallo.
Ahora, si bajo desde alguno de los restantes me pasaría 3 dias mas para descargar esos 7 links dañados.
Se agradece el esfuerzo, pero no me sirvió.
Saludos.
lo mismo me sucede por que
me tome casi el mismo tiempo que el amigo y todo par5a que no sirva,que pasa si pudieras solucionarlo
17-jun-2012
maverid
White User
Re: Furia de Titanes 2 (2012) [BDRip 1080p][Español Latino 5.1/Ingles DTS][Sub.Esp]
[QUOTE=maverid;6896217]lo mismo me sucede por que
me tome casi el mismo tiempo que el amigo y todo par5a que no sirva,que pasa si pudieras solucionarlo[/QU
MIL PERO MIL DISCULPAS SI FUNCIONA AY QUE SOLO DEGARLO DESCARGAR Y DESCOMPRIMIRLO SALE QUE DA ERROR PERO IGUAL DESCOMPRIME SIN ERROR Y LA PELI ESTA DE 10 GRACIAS Y DE ECHO MIS DISCULPAS POR COMENTAR SIN ANTES VER SI REALMENTE FUNCIONA ME UNI A UNA CRITICA INJUSTIFICADA GRACIAS CHAMACO POR LA PELI Y NUEVAMENTE SORRY
17-ago-2012
tuchorreado
Black User
Re: Furia de Titanes 2 (2012) [BDRip 1080p][Español Latino 5.1/Ingles DTS][Sub.Esp]
Este Aporte ya NO SIRVE, vuelvelo a subir., saludos desde Tamaulipas, MEXICO
08-ene-2014
radamezgarcia
Gold User
Re: Furia de Titanes 2 (2012) [BDRip 1080p][Español Latino 5.1/Ingles DTS][Sub.Esp]
no me arriesgare mejor la sigo buscando muchas gracias

Necesitás estar Registrado para dejar comentarios en la descarga Furia de Titanes 2 (2012) [BDRip 1080p][Español Latino 5.1/Ingles DTS][Sub.Esp]

Información del Post