Argentina Warez » Descargas Gratis » Películas Gratis Furia de Titanes 2 (2012) [3D Half-OU][BDRip 1080p][Es-Latino 5.1/Ingles DTS][Sub.Esp]
14-jun-2012
Ch4m4k0
Premium User
Furia de Titanes 2 (2012) [3D Half-OU][BDRip 1080p][Es-Latino 5.1/Ingles DTS][Sub.Esp]




Diez años después de los sucesos de “Furia de titanes”, Perseo (Sam Worthington) está decidido a llevar una vida tranquila con su hijo Helio. Sin embargo, los dioses, debilitados por la falta de fe de la humanidad, pierden el control sobre los Titanes, cuyo líder no es otro que Kronos, el padre de Zeus (Liam Neeson), Hades (Ralph Fiennes) y Poseidón (Danny Huston). Cuando Hades y Ares (Edgar Ramírez) llegan a un acuerdo con Kronos para capturar a Zeus, entonces Perseo tendrá que abandonar su apacible vida para rescatarlo, misión en la que mcuenta con la ayuda de Andrómeda (Rosamund Pike), Agénor (Toby Kebbell) y Hefesto (Bill Nighy).



TÍTULO ORIGINAL: Wrath of the Titans (Clash of the Titans 2)
OTROS TITULOS: Furia de Titanes 2 / Ira de Titanes 3D
AÑO: 2012
DURACIÓN: 99 min.
PAÍS Estados Unidos
DIRECTOR: Jonathan Liebesman
GUIÓN: Greg Berlanti
MÚSICA: Javier Navarrete
FOTOGRAFÍA: Ben Davis
REPARTO: Sam Worthington, Liam Neeson, Ralph Fiennes, Bill Nighy, Rosamund Pike, Danny Huston, Toby Kebbell, Édgar Ramírez, John Bell
PRODUCTORA: Warner Bros. Pictures
GÉNERO: Fantástico. Acción | Antigua Grecia. Mitología. Secuela. 3-D



Código:
General
Complete name                            : Chamako - Furia de Titanes 2 3D 1080P Latino.mkv
Format                                   : Matroska
Format version                           : Version 2
File size                                : 10.8 GiB
Duration                                 : 1h 39mn
Overall bit rate                         : 15.6 Mbps
Movie name                               : Chamako - Furia de Titanes 2 2012 3D 180P Latino
Encoded date                             : UTC 2012-06-14 15:18:50
Writing application                      : mkvmerge v3.4.0 ('Rapunzel') built on May 15 2010 09:38:20
Writing library                          : libebml v0.8.0 + libmatroska v0.9.0

Video
ID                                       : 1
Format                                   : AVC
Format/Info                              : Advanced Video Codec
Format profile                           : High@L4.1
MultiView_Count                          : 2
MultiView_Layout                         : Both Eye
Format settings, CABAC                   : Yes
Format settings, ReFrames                : 4 frames
Codec ID                                 : V_MPEG4/ISO/AVC
Duration                                 : 1h 39mn
Bit rate                                 : 13.4 Mbps
Width                                    : 1 920 pixels
Height                                   : 1 080 pixels
Display aspect ratio                     : 16:9
Frame rate                               : 23.976 fps
Color space                              : YUV
Chroma subsampling                       : 4:2:0
Bit depth                                : 8 bits
Scan type                                : Progressive
Bits/(Pixel*Frame)                       : 0.270
Stream size                              : 9.32 GiB (86%)
Title                                    : Chamako - Furia de Titanes 2 3D
Writing library                          : x264 core 125 r2200 999b753
Encoding settings                        : cabac=1 / ref=4 / deblock=1:-3:-3 / analyse=0x3:0x113 / me=umh / subme=7 / psy=1 / psy_rd=1.00:0.15 / mixed_ref=1 / me_range=16 / chroma_me=1 / trellis=1 / 8x8dct=1 / cqm=0 / deadzone=21,11 / fast_pskip=1 / chroma_qp_offset=-3 / threads=12 / lookahead_threads=2 / sliced_threads=0 / nr=0 / decimate=1 / interlaced=0 / bluray_compat=0 / constrained_intra=0 / bframes=3 / b_pyramid=2 / b_adapt=1 / b_bias=0 / direct=3 / weightb=1 / open_gop=0 / weightp=2 / keyint=250 / keyint_min=23 / scenecut=40 / intra_refresh=0 / rc_lookahead=40 / rc=crf / mbtree=1 / crf=20.0 / qcomp=0.60 / qpmin=10 / qpmax=69 / qpstep=4 / ip_ratio=1.40 / aq=1:1.00
Default                                  : Yes
Forced                                   : No

Audio #1
ID                                       : 2
Format                                   : AC-3
Format/Info                              : Audio Coding 3
Mode extension                           : CM (complete main)
Format settings, Endianness              : Big
Codec ID                                 : A_AC3
Duration                                 : 1h 39mn
Bit rate mode                            : Constant
Bit rate                                 : 384 Kbps
Channel(s)                               : 6 channels
Channel positions                        : Front: L C R, Side: L R, LFE
Sampling rate                            : 48.0 KHz
Bit depth                                : 16 bits
Compression mode                         : Lossy
Stream size                              : 273 MiB (2%)
Title                                    : Latino 5.1
Language                                 : Spanish
Default                                  : Yes
Forced                                   : No

Audio #2
ID                                       : 3
Format                                   : DTS
Format/Info                              : Digital Theater Systems
Codec ID                                 : A_DTS
Duration                                 : 1h 39mn
Bit rate mode                            : Constant
Bit rate                                 : 1 510 Kbps
Channel(s)                               : 6 channels
Channel positions                        : Front: L C R, Side: L R, LFE
Sampling rate                            : 48.0 KHz
Bit depth                                : 24 bits
Compression mode                         : Lossy
Delay relative to video                  : 11ms
Stream size                              : 1.05 GiB (10%)
Title                                    : English DTS
Language                                 : English
Default                                  : No
Forced                                   : No

Text
ID                                       : 4
Format                                   : UTF-8
Codec ID                                 : S_TEXT/UTF8
Codec ID/Info                            : UTF-8 Plain Text
Title                                    : Spanish
Language                                 : Spanish
Default                                  : Yes
Forced                                   : No

Menu
00:00:00.000                             : en:00:00:00.000
00:09:24.856                             : en:00:09:24.856
00:20:07.123                             : en:00:20:07.123
00:30:53.060                             : en:00:30:53.060
00:40:02.317                             : en:00:40:02.317
00:48:46.882                             : en:00:48:46.882
01:00:21.743                             : en:01:00:21.743
01:10:16.421                             : en:01:10:16.421
01:19:18.712                             : en:01:19:18.712
01:30:33.803                             : en:01:30:33.803








ARCHIVO DE RECUPERACIÓN + 1 SFV DE COMPROBACIÓN DE RAR
Añadir el link al Jdownloader o MiPony, y empieza a descargar del host que mas te agrade

PUTLOCKER - JUMBOFILES - FREAKSHARE - BITSHARE - RAPIDGATOR

http://d379664b.qqc.co

CONTRASEÑA: chamako (todo minusculas)

Si Algun link cae solo enviame un MP con el link del post y lo resubiré

Descargar Furia de Titanes 2 (2012) [3D Half-OU][BDRip 1080p][Es-Latino 5.1/Ingles DTS][Sub.Esp] Pelicula Gratis


21-jun-2012
Yuyorosarino
Gold User
Re: Furia de Titanes 2 (2012) [3D Half-OU][BDRip 1080p][Es-Latino 5.1/Ingles DTS][Sub.Esp]
muchas gracias

Necesitás estar Registrado para dejar comentarios en Furia de Titanes 2 (2012) [3D Half-OU][BDRip 1080p][Es-Latino 5.1/Ingles DTS][Sub.Esp]

Información del Post