Furia De Titanes 2 [2012]3D SBS[BDRip 1080p]AC3 5.1[Es-LATINO]DTS-HD[En-US][Sub][Acción]


Descargar Furia De Titanes 2 [2012]3D SBS[BDRip 1080p]AC3 5.1[Es-LATINO]DTS-HD[En-US][Sub][Acción] Película Gratis 1 link por Mega y Mediafire



Argentina Warez » Descargas Gratis » Películas Gratis Furia De Titanes 2 [2012]3D SBS[BDRip 1080p]AC3 5.1[Es-LATINO]DTS-HD[En-US][Sub][Acción]
14-jun-2012
cadagoto
Premium User
Furia De Titanes 2 [2012]3D SBS[BDRip 1080p]AC3 5.1[Es-LATINO]DTS-HD[En-US][Sub][Acción]

Furia De Titanes 2 [2012]3D SBS[BDRip 1080p]AC3 5.1[Es-LATINO]DTS-HD[En-US][Sub][Acción]





Ficha Técnica
-TÍTULO ORIGINAL: Wrath of the Titans (Clash of the Titans 2)
AÑO: 2012
DURACIÓN: 99 min.
PAÍS: Estados Unidos
DIRECTOR: Jonathan Liebesman
GUIÓN: Greg Berlanti
MÚSICA: Javier Navarrete
FOTOGRAFÍA: Ben Davis
REPARTO: Sam Worthington, Liam Neeson, Ralph Fiennes, Bill Nighy, Rosamund Pike, Danny Huston, Toby Kebbell, Édgar Ramírez, John Bell
PRODUCTORA: Warner Bros. Pictures
GÉNERO: Fantástico. Acción | Antigua Grecia. Mitología. Secuela. 3-D


Datos Técnicos

Código:
Aporte Exclusivo Por::::...Cadagoto...::::
General
Unique ID                                : 191690459695158982334768668623880332066 (0x90363D58EAED11D59462105AC8982322)
Complete name                            : D:\NL2QRB-user 8\CadagotoHD\Wrath.Of.The.Titans.2012.3D.H-SBS.DL.GER.AC3.LD.1080p.Bluray.x264.z-man\Wrath.Of.The.Titans.2012.3D.H-SBS.DL.GER.AC3.LD.1080p.Bluray.x264.z-man\Wrath.Of.The.Titans.2012.3D.SBS.LATINO Exclusivo Por Cadagoto.mkv
Format                                   : Matroska
Format version                           : Version 2
File size                                : 11.5 GiB
Duration                                 : 1h 39mn
Overall bit rate                         : 16.5 Mbps
Movie name                               : Aporte Exclusivo Por :::...Cadagoto...:::
Encoded date                             : UTC 2012-06-14 17:26:51
Writing application                      : mkvmerge v3.4.0 ('Rapunzel') built on May 15 2010 09:38:20
Writing library                          : libebml v0.8.0 + libmatroska v0.9.0

Video
ID                                       : 1
Format                                   : AVC
Format/Info                              : Advanced Video Codec
Format profile                           : High@L4.1
MultiView_Count                          : 2
MultiView_Layout                         : Right Eye
Format settings, CABAC                   : Yes
Format settings, ReFrames                : 4 frames
Codec ID                                 : V_MPEG4/ISO/AVC
Duration                                 : 1h 39mn
Bit rate                                 : 14.3 Mbps
Width                                    : 1 920 pixels
Height                                   : 1 080 pixels
Display aspect ratio                     : 16:9
Frame rate                               : 23.976 fps
Color space                              : YUV
Chroma subsampling                       : 4:2:0
Bit depth                                : 8 bits
Scan type                                : Progressive
Bits/(Pixel*Frame)                       : 0.287
Stream size                              : 9.91 GiB (87%)
Title                                    : Aporte Exclusivo Por :::...Cadagoto...:::
Writing library                          : x264 core 125 r2200 999b753
Encoding settings                        : cabac=1 / ref=4 / deblock=1:-3:-3 / analyse=0x3:0x113 / me=umh / subme=7 / psy=1 / psy_rd=1.00:0.15 / mixed_ref=1 / me_range=16 / chroma_me=1 / trellis=1 / 8x8dct=1 / cqm=0 / deadzone=21,11 / fast_pskip=1 / chroma_qp_offset=-3 / threads=12 / lookahead_threads=2 / sliced_threads=0 / nr=0 / decimate=1 / interlaced=0 / bluray_compat=0 / constrained_intra=0 / bframes=3 / b_pyramid=2 / b_adapt=1 / b_bias=0 / direct=3 / weightb=1 / open_gop=0 / weightp=2 / keyint=250 / keyint_min=23 / scenecut=40 / intra_refresh=0 / rc_lookahead=40 / rc=crf / mbtree=1 / crf=20.0 / qcomp=0.60 / qpmin=10 / qpmax=69 / qpstep=4 / ip_ratio=1.40 / aq=1:1.00
Default                                  : No
Forced                                   : No

Audio #1
ID                                       : 2
Format                                   : AC-3
Format/Info                              : Audio Coding 3
Mode extension                           : CM (complete main)
Format settings, Endianness              : Big
Codec ID                                 : A_AC3
Duration                                 : 1h 39mn
Bit rate mode                            : Constant
Bit rate                                 : 384 Kbps
Channel(s)                               : 6 channels
Channel positions                        : Front: L C R, Side: L R, LFE
Sampling rate                            : 48.0 KHz
Bit depth                                : 16 bits
Compression mode                         : Lossy
Stream size                              : 273 MiB (2%)
Title                                    : AC3 5.1 Español Latino :::...Cadagoto...:::
Default                                  : Yes
Forced                                   : Yes

Audio #2
ID                                       : 3
Format                                   : DTS
Format/Info                              : Digital Theater Systems
Codec ID                                 : A_DTS
Duration                                 : 1h 39mn
Bit rate mode                            : Constant
Bit rate                                 : 1 510 Kbps
Channel(s)                               : 6 channels
Channel positions                        : Front: L C R, Side: L R, LFE
Sampling rate                            : 48.0 KHz
Bit depth                                : 24 bits
Compression mode                         : Lossy
Delay relative to video                  : 11ms
Stream size                              : 1.05 GiB (9%)
Title                                    : DTS-HD Ingles  :::...Cadagoto...:::
Language                                 : English
Default                                  : No
Forced                                   : No

Text #1
ID                                       : 4
Format                                   : UTF-8
Codec ID                                 : S_TEXT/UTF8
Codec ID/Info                            : UTF-8 Plain Text
Title                                    : Sub Español Latino :::...Cadagoto...:::
Default                                  : No
Forced                                   : No

Text #2
ID                                       : 5
Format                                   : PGS
Codec ID                                 : S_HDMV/PGS
Codec ID/Info                            : The same subtitle format used on BDs/HD-DVDs
Language                                 : English
Default                                  : No
Forced                                   : No

Text #3
ID                                       : 6
Format                                   : UTF-8
Codec ID                                 : S_TEXT/UTF8
Codec ID/Info                            : UTF-8 Plain Text
Default                                  : Yes
Forced                                   : No

Menu
00:00:00.000                             : en:00:00:00.000
00:09:24.856                             : en:00:09:24.856
00:20:07.123                             : en:00:20:07.123
00:30:53.060                             : en:00:30:53.060
00:40:02.317                             : en:00:40:02.317
00:48:46.882                             : en:00:48:46.882
01:00:21.743                             : en:01:00:21.743
01:10:16.421                             : en:01:10:16.421
01:19:18.712                             : en:01:19:18.712
01:30:33.803                             : en:01:30:33.803


Aporte Exclusivo Por::::...Cadagoto...::::

Sinopsis
- Diez años después de los sucesos de “Furia de titanes”, Perseo (Sam Worthington) está decidido a llevar una vida tranquila con su hijo Helio. Sin embargo, los dioses, debilitados por la falta de fe de la humanidad, pierden el control sobre los Titanes, cuyo líder no es otro que Kronos, el padre de Zeus (Liam Neeson), Hades (Ralph Fiennes) y Poseidón (Danny Huston). Cuando Hades y Ares (Edgar Ramírez) llegan a un acuerdo con Kronos para capturar a Zeus, entonces Perseo tendrá que abandonar su apacible vida para rescatarlo, misión en la que mcuenta con la ayuda de Andrómeda (Rosamund Pike), Agénor (Toby Kebbell) y Hefesto (Bill Nighy).














Links Intercambiables De 500 Mb!
(1° Abrir el link en tu NAVEGADOR, ESPERAR 8 SEGUNDOS Y PULSAR ESTO)


¡Descargar AQUI!
http://3bfcee7a.miniurls.co








Los Archivos .REV Reemplazan A Cualquiera de Los Demas Rars!

¡Aquellos Archivos Sustituyen Partes Off O Dañadas , Úsalos!

Descargar Furia De Titanes 2 [2012]3D SBS[BDRip 1080p]AC3 5.1[Es-LATINO]DTS-HD[En-US][Sub][Acción] Pelicula Gratis


02-jul-2012
ferchufer
White User
Re: Furia De Titanes 2 [2012]3D SBS[BDRip 1080p]AC3 5.1[Es-LATINO]DTS-HD[En-US][Sub][Acción]
Gracias cadagoto! me falt un link para terminar. de lumfile hay 3 caidos (8,9,10) a si que estoy bajando de freack. Gracias otra vez!! Despues te cuento como se ve.
14-ago-2012
none666
New User
Re: Furia De Titanes 2 [2012]3D SBS[BDRip 1080p]AC3 5.1[Es-LATINO]DTS-HD[En-US][Sub][Acción]
gracias por el aporte pero me faltaron algunas partes podrias ayudarme? me falta la 01,05,19,27,31,41,51,52 y 54 como veras son muchas partes para usar los .REV podrias resubirlas por favor, o si puedo encontrar estas partes te lo agradecieria
15-ene-2013
Yuyorosarino
Gold User
Re: Furia De Titanes 2 [2012]3D SBS[BDRip 1080p]AC3 5.1[Es-LATINO]DTS-HD[En-US][Sub][Acción]
gracias
24-ene-2013
Yuyorosarino
Gold User
Re: Furia De Titanes 2 [2012]3D SBS[BDRip 1080p]AC3 5.1[Es-LATINO]DTS-HD[En-US][Sub][Acción]
faltan varios links y los enlaces no aparecen
31-mar-2013
ironzark
White User
Re: Furia De Titanes 2 [2012]3D SBS[BDRip 1080p]AC3 5.1[Es-LATINO]DTS-HD[En-US][Sub][Acción]
Los enlaces estan caidos!!!
08-ene-2014
radamezgarcia
Gold User
Re: Furia De Titanes 2 [2012]3D SBS[BDRip 1080p]AC3 5.1[Es-LATINO]DTS-HD[En-US][Sub][Acción]
Los enlaces estan caidos!!!

Necesitás estar Registrado para dejar comentarios en Furia De Titanes 2 [2012]3D SBS[BDRip 1080p]AC3 5.1[Es-LATINO]DTS-HD[En-US][Sub][Acción]

Información del Post

  • Puntos Puntos: 0 |
  • Visitas Visitas: 2004 |
  • Autor Publicado por: cadagoto |
  • Categoría: Películas Gratis