El Túnel de los Huesos (2011) | 720p BDRip | Español Latino | Drama. Thriller |


Descargar El Túnel de los Huesos (2011) | 720p BDRip | Español Latino | Drama. Thriller | Película Gratis 1 link



Argentina Warez » Descargas Gratis » Películas Gratis El Túnel de los Huesos (2011) | 720p BDRip | Español Latino | Drama. Thriller |
18-jun-2012
camix2008
Premier User
El Túnel de los Huesos (2011) | 720p BDRip | Español Latino | Drama. Thriller |
El Túnel de los Huesos (2011) | 720p BDRip | Español Latino | Drama. Thriller |




La espectacular fuga de siete presos de la cárcel de Villa Devoto en el año 1991. Los reclusos cavaron un túnel desde el hospital de la cárcel y, cuando faltaba poco para huir, realizaron un macabro hallazgo. Uno de ellos hace la promesa de contar lo que encontró en las entrañas de la cárcel si consigue escapar. Y lo consigue. Llama a un periodista para testimoniar su aventura y de esa forma pagar la deuda que contrajo en “El Túnel de los Huesos”.


TÍTULO ORIGINAL: El Túnel de los Huesos
AÑO: 2011
DURACIÓN: 100 min.
PAÍS: Argentina
DIRECTOR: Nacho Garassino
GUIÓN: Nacho Garassino, Daniel Martucci, Ricardo Ragendorfer
MÚSICA: Alejandro Iglesias Rossi
FOTOGRAFÍA: Claudio Beiza
REPARTO: Raúl Taibo, Daniel Valenzuela, Luciano Cazaux, Jorge Sesán, Paco Redondo, Germán de Silva, Martín Scarfi, Daniel Polo, Eduardo Cutuli, Darío Levy, Julio Marticorena, Rubén Noceda, Hugo Anganuzzi, Martín Ortiz
PRODUCTORA: Instituto Nacional de Cine y Artes Audiovisuales (INCAA) / Lucero Producciones
GÉNERO: Drama. Thriller | Drama carcelario



Formato: AVI
Tamaño: 3.1 GB
Audio 1: Español Latino

Código:
Complete name  El.Tunel.de.los.Huesos.2011.720p.BDRip.LATiNO.XviD.AC3.avi
Format                           : AVI
Format/Info                      : Audio Video Interleave
Format profile                   : OpenDML
File size                        : 3.12 GiB
Duration                         : 1h 40mn
Overall bit rate                 : 4 450 Kbps

Video
ID                               : 0
Format                           : MPEG-4 Visual
Format profile                   : Advanced Simple@L5
Format settings, BVOP            : 2
Format settings, QPel            : No
Format settings, GMC             : No warppoints
Format settings, Matrix          : Default (MPEG)
Codec ID                         : XVID
Codec ID/Hint                    : XviD
Duration                         : 1h 40mn
Bit rate                         : 3 800 Kbps
Width                            : 1 280 pixels
Height                           : 560 pixels
Display aspect ratio             : 2.25:1
Frame rate                       : 23.976 fps
Color space                      : YUV
Chroma subsampling               : 4:2:0
Bit depth                        : 8 bits
Scan type                        : Progressive
Compression mode                 : Lossy
Bits/(Pixel*Frame)               : 0.221
Stream size                      : 2.66 GiB (85%)
Writing library                  : XviD 1.2.1 (UTC 2008-12-04)

Audio
ID                               : 1
Format                           : AC-3
Format/Info                      : Audio Coding 3
Mode extension                   : CM (complete main)
Codec ID                         : 2000
Duration                         : 1h 40mn
Bit rate mode                    : Constant
Bit rate                         : 640 Kbps
Channel(s)                       : 6 channels
Channel positions                : Front: L C R, Side: L R, LFE
Sampling rate                    : 48.0 KHz
Bit depth                        : 16 bits
Compression mode                 : Lossy
Stream size                      : 459 MiB (14%)
Alignment                        : Split accross interleaves
Interleave, duration             : 42 ms (1.00 video frame)
Interleave, preload duration     : 500 ms








[/IMG]














http://letitbit.net/download/48254.4...camix.rar.html

1 Link!!!
Contraseña:camix

Descargar El Túnel de los Huesos (2011) | 720p BDRip | Español Latino | Drama. Thriller | Pelicula Gratis



Necesitás estar Registrado para dejar comentarios en El Túnel de los Huesos (2011) | 720p BDRip | Español Latino | Drama. Thriller |

Información del Post

  • Puntos Puntos: 0 |
  • Visitas Visitas: 224 |
  • Autor Publicado por: camix2008 |
  • Categoría: Películas Gratis