Almanya: Bienvenido a Alemania [2011][DVDRip][Castellano][Comedia]


Descargar Almanya: Bienvenido a Alemania [2011][DVDRip][Castellano][Comedia] Película Gratis 1 link por Mega y Mediafire



Argentina Warez » Descargas Gratis » Películas Gratis Almanya: Bienvenido a Alemania [2011][DVDRip][Castellano][Comedia]
22-jun-2012
nihbez
Gold User
Almanya: Bienvenido a Alemania [2011][DVDRip][Castellano][Comedia]





TÍTULO ORIGINAL: Almanya: Willkommen in Deutschland.
AÑO: 2011 (Estreno en España en 2012]
GENERO: Comedia Dramática.
REPARTO: Vedat Erincin (Hüseyin, de mayor), Fahri Yardim (Hüseyin, de joven), Lilay Huser (Fatma, de mayor), Demet Gül (Fayma, de joven), Aylin Tezel (Canan), Rafael Koussouris (Cenk), Denis Moschitto (Ali), Petra Schmidt-Schaller (Gabi). Guion: Yasemin Samdereli y Nesrin Samdereli.

Después de vivir 45 años en Alemania como un “gastarbeiter” (trabajador invitado) turco, Hüseyin Yilmaz, con 70 años cumplidos, anuncia a su familia que ha comprado una casa en Turquía y que todos deben volver con él para hacer las reformas necesarias. La familia no se siente en absoluto atraída por la idea, pero finalmente decide acompañarle. En ese viaje, los diferentes miembros de la familia se enfrentarán a recuerdos, dilemas y conflictos que encontrarán su respuesta en su vuelta a la tierra de sus orígenes.





Código:
Almanya.DVDrip.Castellano.fanatico.avi
Format                                   : AVI
Format/Info                              : Audio Video Interleave
Format profile                           : OpenDML
File size                                : 1.18 GiB
Duration                                 : 1h 37mn
Overall bit rate                         : 1 740 Kbps
Movie name                               : ALMANYA.Title1.DVDRip
Writing application                      : Lavf53.21.0
Original source form/Name                : ALMANYA

Video
ID                                       : 0
Format                                   : MPEG-4 Visual
Format profile                           : Advanced Simple@L5
Format settings, BVOP                    : 2
Format settings, QPel                    : No
Format settings, GMC                     : No warppoints
Format settings, Matrix                  : Default (H.263)
Muxing mode                              : Packed bitstream
Codec ID                                 : XVID
Codec ID/Hint                            : XviD
Duration                                 : 1h 37mn
Bit rate                                 : 1 279 Kbps
Width                                    : 720 pixels
Height                                   : 300 pixels
Display aspect ratio                     : 2.40:1
Frame rate                               : 25.000 fps
Color space                              : YUV
Chroma subsampling                       : 4:2:0
Bit depth                                : 8 bits
Scan type                                : Progressive
Compression mode                         : Lossy
Bits/(Pixel*Frame)                       : 0.237
Stream size                              : 888 MiB (74%)
Writing library                          : XviD 1.2.1 (UTC 2008-12-04)

Audio
ID                                       : 1
Format                                   : AC-3
Format/Info                              : Audio Coding 3
Mode extension                           : CM (complete main)
Codec ID                                 : 2000
Duration                                 : 1h 37mn
Bit rate mode                            : Constant
Bit rate                                 : 448 Kbps
Channel(s)                               : 6 channels
Channel positions                        : Front: L C R, Side: L R, LFE
Sampling rate                            : 48.0 KHz
Bit depth                                : 16 bits
Compression mode                         : Lossy
Stream size                              : 48.8 MiB (4%)
Alignment                                : Aligned on interleaves
Interleave, duration                     : 204 ms (5.10 video frames)








http://uploadjet.net/889r1ffflnvk/Al....part1.rar.htm
http://uploadjet.net/b09a4sump1fj/Al....part2.rar.htm
http://uploadjet.net/jy8e2u8dgkq7/Al....part3.rar.htm

PARA DESCARGAR DEBEN HACER CLICK EN CADA ENLACE , NO FUNCIONAN DESCARGANDOLOS CON JDOWNLOADER, ABAJO LES DEJO EL PROGRAMA PARA QUE PUEDAN DESCARGAR SIN ESPERAS


PARA LAS PERSONAS QUE TENGAN IP FIJA Y NO SABEN COMO CAMBIAR SU IP PARA QUE PUEDAN SEGUIR DESCARGANDO LES DEJO ESTE PROGRAMA AMIGOS , SE LLAMA MAC ADDRESS CHANGER CON ESTE PROGRAMA PODRAN CAMBIAR LA MAC DE SU TARJETA DE RED Y LES DARA UNA NUEVA IP.RECUERDEN LES RECOMIENDO SOLO CAMBIAR LOS ULTIMOS 2 DIGITOS.

PD: TARDA UNOS 30 SEGUNDOS EN CAMBIAR LA IP.SI A ALGUNO DE USTEDES LOS ANTIVIRUS LO DETECTAN COMO UN TROYANO NO SE PREOCUPEN ES UN FALSO POSITIVO.


http://jumbofiles.com/wu20a2bsk236

Descargar Almanya: Bienvenido a Alemania [2011][DVDRip][Castellano][Comedia] Pelicula Gratis



Necesitás estar Registrado para dejar comentarios en la descarga Almanya: Bienvenido a Alemania [2011][DVDRip][Castellano][Comedia]

Información del Post