Argentina Warez » Descargas Gratis » Películas Gratis Ojos Bien Cerrados [HDRip Drama/Erotico Latino Ac3 5.1 1999 .Avi LB]
22-jun-2012
skay73
Premier User
Ojos Bien Cerrados [HDRip Drama/Erotico Latino Ac3 5.1 1999 .Avi LB]






Información del archivo en el servidor
Partes: 3
Servidor: LB
Tamaño: 2.18 gb


Sinopsis
William Harford es un respetable médico neoyorquino cuya vida parece ir muy bien: está casado con una preciosa mujer, tiene una hija y hace un trabajo que le gusta. Pero, al día siguiente de asistir a una fiesta, su esposa Alice le habla de unas fantasías eróticas y de cómo estuvo a punto de dejarlo por un desconocido. Abrumado por esta confesión, acaba entrando en un local, donde un antiguo compañero le habla de una congregación secreta dedicada al hedonismo y al placer sin límites. A partir de entonces un mundo dominado por el sexo y el erotismo se abre ante él.


Caps









Ficha Tenica


TÍTULO ORIGINAL Eyes Wide Shut
AÑO 1999
DURACIÓN 159 min.
PAÍS Reino Unido
DIRECTOR Stanley Kubrick
GUIÓN Stanley Kubrick & Frederic Raphael (Novela: Arthur Schnitzler)
MÚSICA Varios
FOTOGRAFÍA Larry Smith
REPARTO Tom Cruise, Nicole Kidman, Sydney Pollack, Marie Richardson, Leelee Sobieski, Rade Serbedzija, Todd Field, Vinessa Shaw, Alan Cumming, Sky Dumont, Fay Masterson, Thomas Gibson, Madison Eginton, Louise J. Taylor, Stewart Thorndike
PRODUCTORA Warner Bros. Pictures
PREMIOS 1999: Globos de oro: Nominada Mejor banda sonora original
GÉNERO Drama. Intriga | Erótico. Película de culto


Datos de ripeo


Código:
O.B.Cer.sk73_Lat.99.avi
Format                                   : AVI
Format/Info                              : Audio Video Interleave
Format profile                           : OpenDML
File size                                : 2.18 GiB
Duration                                 : 2h 39mn
Overall bit rate                         : 1 964 Kbps
Writing application                      : VirtualDubMod 1.5.10.2 (build 2542/release)
Writing library                          : VirtualDubMod build 2542/release


Video
ID                                       : 0
Format                                   : MPEG-4 Visual
Format profile                           : Advanced Simple@L5
Format settings, BVOP                    : 2
Format settings, QPel                    : No
Format settings, GMC                     : No warppoints
Format settings, Matrix                  : Default (MPEG)
Codec ID                                 : XVID
Codec ID/Hint                            : XviD
Duration                                 : 2h 39mn
Bit rate                                 : 1 504 Kbps
Width                                    : 720 pixels
Height                                   : 400 pixels
Display aspect ratio                     : 16:9
Frame rate                               : 23.976 fps
Color space                              : YUV
Chroma subsampling                       : 4:2:0
Bit depth                                : 8 bits
Scan type                                : Progressive
Compression mode                         : Lossy
Bits/(Pixel*Frame)                       : 0.218
Stream size                              : 1.67 GiB (77%)
Writing library                          : XviD 1.2.1 (UTC 2008-12-04)


Audio
ID                                       : 1
Format                                   : AC-3
Format/Info                              : Audio Coding 3
Mode extension                           : CM (complete main)
Codec ID                                 : 2000
Duration                                 : 2h 39mn
Bit rate mode                            : Constant
Bit rate                                 : 448 Kbps
Channel(s)                               : 6 channels
Channel positions                        : Front: L C R, Side: L R, LFE
Sampling rate                            : 48.0 KHz
Bit depth                                : 16 bits
Compression mode                         : Lossy
Stream size                              : 510 MiB (23%)
Alignment                                : Split accross interleaves
Interleave, duration                     : 42 ms (1.00 video frame)
Interleave, preload duration             : 500 ms

Descarga
LB


Parte 1
Ojos Bien Cerrados Latino 1999 - 49fccaf1


Nota: Si encuentras un link caído avísame para volverlo a subir

Descargar Ojos Bien Cerrados [HDRip Drama/Erotico Latino Ac3 5.1 1999 .Avi LB] Pelicula Gratis


30-nov-2013
uvob
White User
Re: Ojos Bien Cerrados [HDRip Drama/Erotico Latino Ac3 5.1 1999 .Avi LB]
¿Puedes subirla? Gracias.

Necesitás estar Registrado para dejar comentarios en Ojos Bien Cerrados [HDRip Drama/Erotico Latino Ac3 5.1 1999 .Avi LB]

Información del Post