Battleship (TS | Subs | 1 Link | FS/BS | 2012)


Descargar Battleship (TS | Subs | 1 Link | FS/BS | 2012) Película Gratis 1 link por Mega y Mediafire



Argentina Warez » Descargas Gratis » Películas Gratis Battleship (TS | Subs | 1 Link | FS/BS | 2012)
24-jun-2012
JonUp
Premier User
Battleship (TS | Subs | 1 Link | FS/BS | 2012)



Código:
DIRECTOR Peter Berg GUIÓN Erich Hoeber, Jon Hoeber MÚSICA Steve Jablonsky FOTOGRAFÍA Tobias A. Schliessler REPARTO Taylor Kitsch, Liam Neeson, Alexander Skarsgård, Brooklyn Decker, Josh Pence, Rihanna, Tadanobu Asano, Hamish Linklater, Peter MacNicol, John Tui, Jesse Plemons PRODUCTORA Universal Pictures / Film 44 / Hasbro / Stuber Productions GÉNERO Ciencia ficción. Acción. Bélico | Aventuras marinas. Extraterrestres

Código:
Libre adaptación cinematográfica del popular juego de mesa de Hasbro conocido como “Hundir la flota” o ”Batalla naval”. En este caso la batalla será entre la flota de los Estados Unidos y una flota alienígena. Épica aventura que transcurre por mar, cielo y tierra, en la que nuestro planeta lucha por sobrevivir contra una fuerza muy superior. El teniente Hopper (Taylor Kitsch) es un oficial de la Marina destinado al John Paul Jones. Sam Shane (Brooklyn Decker) es una fisioterapeuta de la armada y también la novia de Hopper. Stone (Skarsgard) es el hermano mayor de Hopper y comandante del Samson. La suboficial Raikes (Rihanna) es la especialista en armas del John Paul Jones. Stone y Hopper están a las órdenes del Almirante Shane (Liam Neeson), que es el padre de Sam.



Código:
General Complete name : /disco3/lolzreuh/public_html/rapidleech/files/Descargas-Directas/Bashipeng.JonUp.avi Format : AVI Format/Info : Audio Video Interleave File size : 704 MiB Duration : 2h 1mn Overall bit rate : 809 Kbps Writing application : Lavf54.3.100 Video ID : 0 Format : MPEG-4 Visual Format profile : Simple@L3 Format settings, BVOP : No Format settings, QPel : No Format settings, GMC : No warppoints Format settings, Matrix : Default (H.263) Codec ID : XVID Codec ID/Hint : XviD Duration : 2h 1mn Bit rate : 750 Kbps Width : 640 pixels Height : 280 pixels Display aspect ratio : 2.25:1 Frame rate : 30.000 fps Color space : YUV Chroma subsampling : 4:2:0 Bit depth : 8 bits Scan type : Progressive Compression mode : Lossy Bits/(Pixel*Frame) : 0.140 Stream size : 652 MiB (93%) Writing library : XviD 64 Audio ID : 1 Format : AC-3 Format/Info : Audio Coding 3 Mode extension : CM (complete main) Codec ID : 2000 Duration : 2h 0mn Bit rate mode : Constant Bit rate : 48.0 Kbps Channel(s) : 2 channels Channel positions : Front: L R Sampling rate : 48.0 KHz Bit depth : 16 bits Compression mode : Lossy Stream size : 41.4 MiB (6%) Alignment : Aligned on interleaves Interleave, duration : 32 ms (0.97 video frame)


Subtitulos:
Código:
http://www65.zippyshare.com/v/61075713/file.html

Código:
http://linkto.net/?15592141034fe737ac344bd8.62214898

Código:
http://linkto.net/?19130915104fe739448f4083.44075813

Descargar Battleship (TS | Subs | 1 Link | FS/BS | 2012) Pelicula Gratis


27-jun-2012
monocoptero
White User
Re: Battleship (TS | Subs | 1 Link | FS/BS | 2012)
Y donde estan los subtitulos???
27-jun-2012
JonUp
Premier User
Re: Battleship (TS | Subs | 1 Link | FS/BS | 2012)
Iniciado por monocoptero
Y donde estan los subtitulos???
Son sueltos,si miras antes de bajar,hay una parte que dice "Subtitulos" se agregan con el VLC y listo.
28-jun-2012
monocoptero
White User
Re: Battleship (TS | Subs | 1 Link | FS/BS | 2012)
Disculpa amigo no lo sabía ,a todo esto se ve muy bien gracias!!!

Necesitás estar Registrado para dejar comentarios en Battleship (TS | Subs | 1 Link | FS/BS | 2012)

Información del Post