A Thousand Words [2012][DVDRip][Latino][1 Link][RG]


Descargar A Thousand Words [2012][DVDRip][Latino][1 Link][RG] Película Gratis 1 link por Mega y Mediafire



Argentina Warez » Descargas Gratis » Películas Gratis A Thousand Words [2012][DVDRip][Latino][1 Link][RG]
25-jun-2012
wapintekun10
Black User
A Thousand Words [2012][DVDRip][Latino][1 Link][RG]





Título original: A Thousand Words
País: USA
Estreno en USA: 09/03/2012
Productora: DreamWorks SKG, Saturn Films, Varsity Pictures
Director: Brian Robbins
Guión: Steven Koren
Reparto: Eddie Murphy, Allison Janney, Cliff Curtis, Ariel Winter, Kerry Washington, Clark Duke, Jordan-Claire Green, Justina Machado
Audio: Español Latino
Género: comedia, drama
Calidad: DVDRip




Código:
General
Complete name                    : m_pls_wapintekun10.avi
Format                           : AVI
Format/Info                      : Audio Video Interleave
File size                        : 698 MiB
Duration                         : 1h 31mn
Overall bit rate                 : 1 067 Kbps
Writing application              : VirtualDubMod 1.5.10.2 (build 2540/release) VirtualDubMod build 2540/release

Video
ID                               : 0
Format                           : MPEG-4 Visual
Format profile                   : Advanced Simple@L5
Format settings, BVOP            : 3
Format settings, QPel            : No
Format settings, GMC             : No warppoints
Format settings, Matrix          : Default (H.263)
Muxing mode                      : Packed bitstream
Codec ID                         : XVID
Codec ID/Hint                    : XviD
Duration                         : 1h 31mn
Bit rate                         : 930 Kbps
Width                            : 640 pixels
Height                           : 272 pixels
Display aspect ratio             : 2.35:1
Frame rate                       : 23.976 fps
Color space                      : YUV
Chroma subsampling               : 4:2:0
Bit depth                        : 8 bits
Scan type                        : Progressive
Compression mode                 : Lossy
Bits/(Pixel*Frame)               : 0.223
Stream size                      : 609 MiB (87%)
Writing library                  : XviD 64

Audio
ID                               : 1
Format                           : MPEG Audio
Format version                   : Version 1
Format profile                   : Layer 3
Mode                             : Joint stereo
Mode extension                   : MS Stereo
Codec ID                         : 55
Codec ID/Hint                    : MP3
Duration                         : 1h 31mn
Bit rate mode                    : Constant
Bit rate                         : 128 Kbps
Channel(s)                       : 2 channels
Sampling rate                    : 48.0 KHz
Compression mode                 : Lossy
Delay relative to video          : 24ms
Stream size                      : 83.8 MiB (12%)
Alignment                        : Aligned on interleaves
Interleave, duration             : 42 ms (1.00 video frame)
Interleave, preload duration     : 504 ms
Writing library                  : LAME3.98.4
Language                         : un


Un hombre con mucha labia averigua que sólo le quedan 1000 palabras por decir antes de morir...










http://rapidgator.net/file/41211378/...kun10.avi.html



Descargar A Thousand Words [2012][DVDRip][Latino][1 Link][RG] Pelicula Gratis



Necesitás estar Registrado para dejar comentarios en A Thousand Words [2012][DVDRip][Latino][1 Link][RG]

Información del Post

  • Puntos Puntos: 0 |
  • Visitas Visitas: 304 |
  • Autor Publicado por: wapintekun10 |
  • Categoría: Películas Gratis