El Gran Año (2011) | DVDRip | Español Laino | 700 MB | Comedia |


Descargar El Gran Año (2011) | DVDRip | Español Laino | 700 MB | Comedia | Película Gratis 1 link por Mega y Mediafire



Argentina Warez » Descargas Gratis » Películas Gratis El Gran Año (2011) | DVDRip | Español Laino | 700 MB | Comedia |
27-jun-2012
camix2008
Premier User
El Gran Año (2011) | DVDRip | Español Laino | 700 MB | Comedia |
El Gran Año (2011) | DVDRip | Español Laino | 700 MB | Comedia |



El Gran Año (The Big Year)la Película de Comedia del 2011 en Calidad DVDRip, Tres hombres (Steve Martin, Jack Black y Owen Wilson), cansados de sus obligaciones y responsabilidades, atraviesan un momento de crisis personal. Para superarlo deciden participar en una competición anual para ver quién observa más especies de pájaros de Norte América en un año entero.


TÍTULO ORIGINAL The Big Year
AÑO 2011
DURACIÓN 100 min.
PAÍS [Estados Unidos]
DIRECTOR David Frankel
GUIÓN Howard Franklin (Libro: Mark Obmascik)
MÚSICA Theodore Shapiro
FOTOGRAFÍA Lawrence Sher
REPARTO Steve Martin, Jack Black, Owen Wilson, Jim Parsons, Rosamund Pike, Anjelica Huston, Rashida Jones, Brian Dennehy, Dianne Wiest, Anthony Anderson, Tim Blake Nelson, Kevin Pollak, Joel McHale
PRODUCTORA Deuce Three Productions / DreamWorks SKG / Red Hour Films
GÉNERO Comedia | Pájaros



Formato: AVI
Calidad: DVDRip
Tamaño: 700 MB
Idioma: Español Latino

Código:
General
Format                                   : AVI
Format/Info                              : Audio Video Interleave
File size                                : 700 MiB
Duration                                 : 1h 40mn
Overall bit rate                         : 979 Kbps
Movie name                               : The.Big.Year.2011.DVDRip.LATiNO.XviD
Director                                 : WwW.DD-Peliculas.COM
Genre                                    : Comedia
Recorded date                            : 01-03-2012
Writing application                      : VirtualDubMod 1.5.4.1 (build 2178/release) VirtualDubMod build 2178/release
Original source form/Name                : Movie
Copyright                                : WwW.DD-Peliculas.COM
Comment                                  : By Johual

Video
ID                                       : 0
Format                                   : MPEG-4 Visual
Format profile                           : Advanced Simple@L5
Format settings, BVOP                    : 1
Format settings, QPel                    : No
Format settings, GMC                     : No warppoints
Format settings, Matrix                  : Custom
Codec ID                                 : XVID
Codec ID/Hint                            : XviD
Duration                                 : 1h 40mn
Bit rate                                 : 854 Kbps
Width                                    : 640 pixels
Height                                   : 272 pixels
Display aspect ratio                     : 2.35:1
Frame rate                               : 23.976 fps
Color space                              : YUV
Chroma subsampling                       : 4:2:0
Bit depth                                : 8 bits
Scan type                                : Progressive
Compression mode                         : Lossy
Bits/(Pixel*Frame)                       : 0.205
Stream size                              : 611 MiB (87%)
Writing library                          : XviD 64

Audio
ID                                       : 1
Format                                   : MPEG Audio
Format version                           : Version 1
Format profile                           : Layer 3
Mode                                     : Joint stereo
Mode extension                           : MS Stereo
Codec ID                                 : 55
Codec ID/Hint                            : MP3
Duration                                 : 1h 40mn
Bit rate mode                            : Variable
Bit rate                                 : 112 Kbps
Nominal bit rate                         : 128 Kbps
Channel(s)                               : 2 channels
Sampling rate                            : 48.0 KHz
Compression mode                         : Lossy
Stream size                              : 80.0 MiB (11%)
Alignment                                : Aligned on interleaves
Interleave, duration                     : 24 ms (0.58 video frame)
Interleave, preload duration             : 501 ms
Writing library                          : LAME3.98r
Encoding settings                        : -m j -V 4 -q 2 -lowpass 17 --abr 128
Language                                 : un / Spanish

















Links Protegidos!!!!


http://ncrypt.in/folder-pxZ4j1MS

1 Link!!!

Contraseña:camix

Descargar El Gran Año (2011) | DVDRip | Español Laino | 700 MB | Comedia | Pelicula Gratis



Necesitás estar Registrado para dejar comentarios en El Gran Año (2011) | DVDRip | Español Laino | 700 MB | Comedia |

Información del Post

  • Puntos Puntos: 0 |
  • Visitas Visitas: 178 |
  • Autor Publicado por: camix2008 |
  • Categoría: Películas Gratis