Argentina Warez » Descargas Gratis » Películas Gratis Superman Vs. La Elite (2012) [DVDRip][Castellano][Animación]
27-jun-2012
nihbez
Gold User
Superman Vs. La Elite (2012) [DVDRip][Castellano][Animación]





TITULO ORIGINAL: Superman vs. The Elite (Superman Versus The Elite)
AÑO: 2012
DURACIÓN: 76 min.
PAÍS: USA
DIRECTOR: Michael Chang
GUIÓN: Joe Kelly (Cómic: Joe Kelly)
FOTOGRAFÍA: Animation
REPARTO: Animation
PRODUCTORA: Warner Premiere / DC Entertainment / Warner Bros. Animation
GÉNERO: Animación. Ciencia ficción. Acción | Superhéroes. Cómic. DC Comics

Cuando la catástrofe nos golpea, Superman una vez más se arroja a la acción, pero en esta ocasión consigue un poco de ayuda inesperada de un nuevo escuadrón de súper héroes que se llaman a sí mismos La Élite. Compuestos por cuatro poderosos seres y encabezados por el descarado y calculador Manchester Black, esta nueva fuerza trae una cruda, salvaje mentalidad sin barreras en la batalla contra el mal. Con un gran respaldo público a los métodos sanguinarios de la Élite, el escenario se sitúa en una confrontación que tiene a los sentimientos de Superman superados y anticuados. Adaptación libre del cómic “What’s So Funny About Truth, Justice & the American Way?”.





Código:
Superman.Elite.DVDrip.Castellano.fanatico.avi
Format                                   : AVI
Format/Info                              : Audio Video Interleave
File size                                : 904 MiB
Duration                                 : 1h 14mn
Overall bit rate                         : 1 703 Kbps
Writing application                      : VirtualDubMod 1.5.10.2 (build 2542/release)
Writing library                          : VirtualDubMod build 2542/release

Video
ID                                       : 0
Format                                   : MPEG-4 Visual
Format profile                           : Simple@L1
Format settings, BVOP                    : No
Format settings, QPel                    : No
Format settings, GMC                     : No warppoints
Format settings, Matrix                  : Default (H.263)
Codec ID                                 : DIVX
Codec ID/Info                            : Project Mayo
Codec ID/Hint                            : DivX 4
Duration                                 : 1h 14mn
Bit rate                                 : 1 053 Kbps
Width                                    : 720 pixels
Height                                   : 304 pixels
Display aspect ratio                     : 16:9
Frame rate                               : 23.976 fps
Color space                              : YUV
Chroma subsampling                       : 4:2:0
Bit depth                                : 8 bits
Scan type                                : Progressive
Compression mode                         : Lossy
Bits/(Pixel*Frame)                       : 0.201
Stream size                              : 559 MiB (62%)
Writing library                          : Lavc52.45.0

Audio
ID                                       : 1
Format                                   : AC-3
Format/Info                              : Audio Coding 3
Mode extension                           : CM (complete main)
Codec ID                                 : 2000
Duration                                 : 1h 14mn
Bit rate mode                            : Constant
Bit rate                                 : 640 Kbps
Channel(s)                               : 6 channels
Channel positions                        : Front: L C R, Side: L R, LFE
Sampling rate                            : 48.0 KHz
Bit depth                                : 16 bits
Compression mode                         : Lossy
Stream size                              : 340 MiB (38%)
Alignment                                : Split accross interleaves
Interleave, duration                     : 42 ms (1.00 video frame)
Interleave, preload duration             : 500 ms











http://uploadjet.net/n0l115m8mim4/Su....part1.rar.htm
http://uploadjet.net/prap9euqjz18/Su....part2.rar.htm

PARA DESCARGAR DEBEN HACER CLICK EN CADA ENLACE , NO FUNCIONAN DESCARGANDOLOS CON JDOWNLOADER, ABAJO LES DEJO EL PROGRAMA PARA QUE PUEDAN DESCARGAR SIN ESPERAS


PARA LAS PERSONAS QUE TENGAN IP FIJA Y NO SABEN COMO CAMBIAR SU IP PARA QUE PUEDAN SEGUIR DESCARGANDO LES DEJO ESTE PROGRAMA AMIGOS , SE LLAMA MAC ADDRESS CHANGER CON ESTE PROGRAMA PODRAN CAMBIAR LA MAC DE SU TARJETA DE RED Y LES DARA UNA NUEVA IP.RECUERDEN LES RECOMIENDO SOLO CAMBIAR LOS ULTIMOS 2 DIGITOS.

PD: TARDA UNOS 30 SEGUNDOS EN CAMBIAR LA IP.SI A ALGUNO DE USTEDES LOS ANTIVIRUS LO DETECTAN COMO UN TROYANO NO SE PREOCUPEN ES UN FALSO POSITIVO.


http://www38.zippyshare.com/v/55435866/file.html

Descargar Superman Vs. La Elite (2012) [DVDRip][Castellano][Animación] Pelicula Gratis



Necesitás estar Registrado para dejar comentarios en Superman Vs. La Elite (2012) [DVDRip][Castellano][Animación]

Información del Post