Mi Semana con Marilyn[2011][BDRip 720p]AC3[Es-ESP][Es-LAT]DTS[En-US][Sub][Drama]


Descargar Mi Semana con Marilyn[2011][BDRip 720p]AC3[Es-ESP][Es-LAT]DTS[En-US][Sub][Drama] Película Gratis 1 link por Mega y Mediafire



Argentina Warez » Descargas Gratis » Películas Gratis Mi Semana con Marilyn[2011][BDRip 720p]AC3[Es-ESP][Es-LAT]DTS[En-US][Sub][Drama]
27-jun-2012
cadagoto
Premium User
Mi Semana con Marilyn[2011][BDRip 720p]AC3[Es-ESP][Es-LAT]DTS[En-US][Sub][Drama]

Mi Semana con Marilyn[2011][BDRip 720p]AC3[Es-ESP][Es-LAT]DTS[En-US][Sub][Drama]



Ficha Técnica
-Mi semana con Marilyn
TÍTULO ORIGINAL My Week with Marilyn
AÑO 2011
DURACIÓN 101 min.
PAÍS USA
DIRECTOR Simon Curtis
GUIÓN Adrian Hodges (Libro: Colin Clark)
MÚSICA Conrad Pope, Alexandre Desplat
FOTOGRAFÍA Ben Smithard
REPARTO
Michelle Williams, Eddie Redmayne, Kenneth Branagh, Emma Watson, Judi Dench, Dominic Cooper, Derek Jacobi, Julia Ormond, Toby Jones, Dougray Scott, Simon Russell Beale, Zoë Wanamaker, Geraldine Somerville
PRODUCTORA BBC Films / Lipsync Productions / Trademark Films / UK Film Council / The Weinstein Company
PREMIOS 2011: Oscars: Nominada a mejor actriz (Michelle Williams) y mejor actor sec. (Branagh)
2011: Globos de Oro: Mejor actriz comedia o musical (Williams). 3 nominaciones
2011: Premios BAFTA: 6 nominaciones, incluyendo Mejor película británica
2011: Critics Choice Awards: 4 nominaciones, incluyendo mejor actriz (Michelle Williams)
2011: Independent Spirit Awards: Nominada a Mejor actriz (Michelle Williams)
2011: Screen Actors Guild: Nominados Mejor Actriz (Williams), Actor de Reparto (Branagh)
GÉNERO Drama | Biográfico. Años 50. Cine dentro del cine


Datos Técnicos

Código:
Montaje Por::::...Cadagoto...::::
General
Unique ID                                : 200680642281987130979584285440318866716 (0x96F9AF92182D23FC92F85392394F851C)
Complete name                            : D:\NL2QRB-user 8\CadagotoHD\Mi Semana Con Marilyn BDRip 720p CadagotoHD\Mi Semana Con Marilyn BDRip 720p CadagotoHD.mkv
Format                                   : Matroska
Format version                           : Version 2
File size                                : 5.48 GiB
Duration                                 : 1h 38mn
Overall bit rate                         : 7 929 Kbps
Movie name                               : * Aporte Exclusivo Por  :::...CadagotoHD...::: *
Encoded date                             : UTC 2012-06-27 21:34:08
Writing application                      : mkvmerge v3.4.0 ('Rapunzel') built on May 15 2010 09:38:20
Writing library                          : libebml v0.8.0 + libmatroska v0.9.0

Video
ID                                       : 1
Format                                   : AVC
Format/Info                              : Advanced Video Codec
Format profile                           : High@L4.1
Format settings, CABAC                   : Yes
Format settings, ReFrames                : 5 frames
Codec ID                                 : V_MPEG4/ISO/AVC
Duration                                 : 1h 38mn
Bit rate                                 : 4 818 Kbps
Width                                    : 1 280 pixels
Height                                   : 544 pixels
Display aspect ratio                     : 2.35:1
Frame rate                               : 23.976 fps
Color space                              : YUV
Chroma subsampling                       : 4:2:0
Bit depth                                : 8 bits
Scan type                                : Progressive
Bits/(Pixel*Frame)                       : 0.289
Stream size                              : 3.23 GiB (59%)
Title                                    : * Aporte Exclusivo Por  :::...CadagotoHD...::: *
Writing library                          : x264 core 120 r2164 da19765
Encoding settings                        : cabac=1 / ref=5 / deblock=1:0:0 / analyse=0x3:0x133 / me=umh / subme=7 / psy=1 / psy_rd=1.00:0.00 / mixed_ref=1 / me_range=16 / chroma_me=1 / trellis=1 / 8x8dct=1 / cqm=0 / deadzone=21,11 / fast_pskip=0 / chroma_qp_offset=-2 / threads=18 / sliced_threads=0 / nr=0 / decimate=1 / interlaced=0 / bluray_compat=0 / constrained_intra=0 / bframes=3 / b_pyramid=2 / b_adapt=1 / b_bias=0 / direct=1 / weightb=1 / open_gop=0 / weightp=2 / keyint=240 / keyint_min=23 / scenecut=40 / intra_refresh=0 / rc_lookahead=40 / rc=2pass / mbtree=1 / bitrate=4818 / ratetol=1.0 / qcomp=0.60 / qpmin=10 / qpmax=51 / qpstep=4 / cplxblur=20.0 / qblur=0.5 / ip_ratio=1.40 / aq=1:1.00
Language                                 : Spanish
Default                                  : No
Forced                                   : Yes

Audio #1
ID                                       : 2
Format                                   : AC-3
Format/Info                              : Audio Coding 3
Mode extension                           : CM (complete main)
Format settings, Endianness              : Big
Codec ID                                 : A_AC3
Duration                                 : 1h 38mn
Bit rate mode                            : Constant
Bit rate                                 : 640 Kbps
Channel(s)                               : 6 channels
Channel positions                        : Front: L C R, Side: L R, LFE
Sampling rate                            : 48.0 KHz
Bit depth                                : 16 bits
Compression mode                         : Lossy
Delay relative to video                  : 1s 0ms
Stream size                              : 453 MiB (8%)
Title                                    : Castellano AC3 5.1  :::...CadagotoHD...:::
Language                                 : Spanish
Default                                  : No
Forced                                   : Yes

Audio #2
ID                                       : 3
Format                                   : DTS
Format/Info                              : Digital Theater Systems
Codec ID                                 : A_DTS
Duration                                 : 1h 38mn
Bit rate mode                            : Constant
Bit rate                                 : 755 Kbps
Channel(s)                               : 6 channels
Channel positions                        : Front: L C R, Side: L R, LFE
Sampling rate                            : 48.0 KHz
Bit depth                                : 24 bits
Compression mode                         : Lossy
Delay relative to video                  : 1s 11ms
Stream size                              : 534 MiB (10%)
Title                                    : Castellano DTS  :::...CadagotoHD...:::
Language                                 : Spanish
Default                                  : No
Forced                                   : No

Audio #3
ID                                       : 4
Format                                   : DTS
Format/Info                              : Digital Theater Systems
Codec ID                                 : A_DTS
Duration                                 : 1h 38mn
Bit rate mode                            : Constant
Bit rate                                 : 1 510 Kbps
Channel(s)                               : 6 channels
Channel positions                        : Front: L C R, Side: L R, LFE
Sampling rate                            : 48.0 KHz
Bit depth                                : 24 bits
Compression mode                         : Lossy
Delay relative to video                  : 11ms
Stream size                              : 1.04 GiB (19%)
Title                                    : Ingles DTS  :::...CadagotoHD...:::
Language                                 : English
Default                                  : No
Forced                                   : No

Audio #4
ID                                       : 5
Format                                   : AC-3
Format/Info                              : Audio Coding 3
Mode extension                           : CM (complete main)
Format settings, Endianness              : Big
Codec ID                                 : A_AC3
Duration                                 : 1h 38mn
Bit rate mode                            : Constant
Bit rate                                 : 192 Kbps
Channel(s)                               : 2 channels
Channel positions                        : Front: L R
Sampling rate                            : 48.0 KHz
Bit depth                                : 16 bits
Compression mode                         : Lossy
Delay relative to video                  : 500ms
Stream size                              : 136 MiB (2%)
Title                                    : Español Latino AC3 :::...CadagotoHD...:::
Language                                 : Spanish
Default                                  : No
Forced                                   : No

Text
ID                                       : 6
Format                                   : UTF-8
Codec ID                                 : S_TEXT/UTF8
Codec ID/Info                            : UTF-8 Plain Text
Title                                    : Spanish
Language                                 : Spanish
Default                                  : No
Forced                                   : No

Menu
00:00:00.000                             : en:00:00:00.000
00:05:16.775                             : en:00:05:16.775
00:11:58.259                             : en:00:11:58.259
00:15:39.730                             : en:00:15:39.730
00:20:12.336                             : en:00:20:12.336
00:25:29.111                             : en:00:25:29.111
00:31:44.903                             : en:00:31:44.903
00:37:32.292                             : en:00:37:32.292
00:43:30.775                             : en:00:43:30.775
00:47:12.496                             : en:00:47:12.496
00:53:12.022                             : en:00:53:12.022
01:00:35.173                             : en:01:00:35.173
01:07:16.407                             : en:01:07:16.407
01:14:25.961                             : en:01:14:25.961
01:21:44.775                             : en:01:21:44.775
01:25:18.947                             : en:01:25:18.947
01:28:23.924                             : en:01:28:23.924
01:32:17.699                             : en:01:32:17.699


Montaje Por::::...Cadagoto...::::

Sinopsis
- Año 1956. La joven actriz Marilyn Monroe (Michelle Williams) llega a Inglaterra para protagonizar con Sir Laurence Olivier (Kenneth Branagh) la película "El príncipe y la corista". Colin Clark (Eddie Redmayne), un joven de 23 años con buenos contactos, consigue un trabajo como ayudante de producción y es testigo del choque de egos y la tensa relación entre Olivier y Marilyn durante el rodaje. (FILMAFFINITY)














Links Intercambiables De 500 Mb!
(Abrir el link en tu Navegador, Eperar 8 Segundos Y Pulsar AQUI)

¡Descargar AQUI!
http://88e88684.miniurls.co




Los Archivos .REV Reemplazan A Cualquiera de Los Demas Rars!

¡Aquellos Archivos Sustituyen Partes Off O Dañadas , Úsalos!

Descargar Mi Semana con Marilyn[2011][BDRip 720p]AC3[Es-ESP][Es-LAT]DTS[En-US][Sub][Drama] Pelicula Gratis



Necesitás estar Registrado para dejar comentarios en Mi Semana con Marilyn[2011][BDRip 720p]AC3[Es-ESP][Es-LAT]DTS[En-US][Sub][Drama]

Información del Post