American Reunion (2012) [Unrated BRRip 480p XViD-UNiQUE][V.O.Inglés][Mediafire/JF/LF/UF]


Descargar American Reunion (2012) [Unrated BRRip 480p XViD-UNiQUE][V.O.Inglés][Mediafire/JF/LF/UF] Película Gratis 1 link por Mega y Mediafire



Argentina Warez » Descargas Gratis » Películas Gratis American Reunion (2012) [Unrated BRRip 480p XViD-UNiQUE][V.O.Inglés][Mediafire/JF/LF/UF]
28-jun-2012
Basch4553
Silver User
American Reunion (2012) [Unrated BRRip 480p XViD-UNiQUE][V.O.Inglés][Mediafire/JF/LF/UF]
American Reunion (2012) [Unrated BRRip 480p XViD-UNiQUE][V.O.Inglés][Mediafire/JF/LF/UF]




En la comedia 'American Reunion', todos los personajes de 'American Pie', a los que conocimos hace más de una década, regresan a East Great Falls para participar en una reunión del instituto. Durante el esperado fin de semana descubrirán qué y quién ha cambiado, qué y quién no, pero también que el paso del tiempo y la distancia no pueden con los lazos de la amistad.
En el verano de 1999, cuatro adolescentes de una pequeña ciudad de Michigan decidieron que ya era hora de perder la virginidad. Años después nos enteramos de que Jim y Michelle se casaron, mientras que Kevin y Vicky se separaron. Oz y Heather también se distanciaron, pero Finch sigue acordándose de la madre de Stifler. Estos grandes amigos vuelven a casa como adultos, dispuestos a recordar y a inspirarse en los desaforados adolescentes que lanzaron una comedia legendaria.




Calidad: BRRip 480p
Nombre: American.Reunion.2012.Unrated.BRRip.XViD-UNiQUE
Tamaño: 1.37 GB
Video: 720X384, 1 266 Kbps, 23.976 fps
Audio: English, AC3, 448 Kbps
Duración: 1h 25mn
Subtítulos: No
Género: Comedia
Director: Jon Hurwitz, Hayden Schlossberg
Reparto: Jason Biggs, Alyson Hannigan, Chris Klein, Thomas Ian Nicholas, Tara Reid, Natasha Lyonne, Shannon Elizabeth, Seann William Scott, Mena Suvari, Eddie Kaye Thomas, Jennifer Coolidge, Eugene Levy, Katrina Bowden, Dania Ramirez


Detalles:
Código:
General
Complete name                            : American.Reunion.2012.Unrated.BRRip.XViD-UNiQUE.BAsch4553.avi
Format                                   : AVI
Format/Info                              : Audio Video Interleave
File size                                : 1.37 GiB
Duration                                 : 1h 53mn
Overall bit rate                         : 1 724 Kbps
Writing application                      : VirtualDubMod 1.5.10.2 (build 2540/release)
Writing library                          : VirtualDub build 32842/release

Video
ID                                       : 0
Format                                   : MPEG-4 Visual
Format profile                           : Advanced Simple@L5
Format settings, BVOP                    : 2
Format settings, QPel                    : No
Format settings, GMC                     : No warppoints
Format settings, Matrix                  : Default (H.263)
Muxing mode                              : Packed bitstream
Codec ID                                 : XVID
Codec ID/Hint                            : XviD
Duration                                 : 1h 53mn
Bit rate                                 : 1 266 Kbps
Width                                    : 720 pixels
Height                                   : 384 pixels
Display aspect ratio                     : 1.875
Frame rate                               : 23.976 fps
Color space                              : YUV
Chroma subsampling                       : 4:2:0
Bit depth                                : 8 bits
Scan type                                : Progressive
Compression mode                         : Lossy
Bits/(Pixel*Frame)                       : 0.191
Stream size                              : 1.01 GiB (73%)
Writing library                          : XviD 64

Audio
ID                                       : 1
Format                                   : AC-3
Format/Info                              : Audio Coding 3
Mode extension                           : CM (complete main)
Codec ID                                 : 2000
Duration                                 : 1h 53mn
Bit rate mode                            : Constant
Bit rate                                 : 448 Kbps
Channel(s)                               : 6 channels
Channel positions                        : Front: L C R, Side: L R, LFE
Sampling rate                            : 48.0 KHz
Bit depth                                : 16 bits
Compression mode                         : Lossy
Stream size                              : 365 MiB (26%)
Alignment                                : Split accross interleaves
Interleave, duration                     : 42 ms (1.00 video frame)
Interleave, preload duration             : 500 ms
Captura:
Spoiler




Links Intercambiables:
Las Partes de MF y JF hay que renombralas para poder extraer el archivo


Links 200 MB:
Carpeta Mediafire con las partes.
http://linkto.net/?21067514064fec54552d2694.02306918
La parte 1 la pueden descargar de cualquiera de los demás servidores


Links 200 MB:
http://linkto.net/?15105548294fec6a143f4098.71239566
http://linkto.net/?12868236724fec6a144813c2.68491189
http://linkto.net/?13835796314fec6a14482868.85330470
http://linkto.net/?21400962364fec6a144a9380.43796778
http://linkto.net/?4442044614fec6a144a9da3.01536206
http://linkto.net/?7894055904fec6a144baf44.03464484
http://linkto.net/?11894989264fec6a144bb9f1.72196507
La parte 1 la pueden descargar de cualquiera de los demás servidores


2 Links:
http://linkto.net/?15392491834fec52316ec4b6.49923462
http://linkto.net/?4086391834fec5231819c45.77239103
Links 200 MB:
http://linkto.net/?20093616794fec5249ddaf44.42378525
http://linkto.net/?12780500504fec5249e14300.48621937
http://linkto.net/?13857951694fec5249e4f5e2.03203791
http://linkto.net/?1230344184fec5249e50032.40253374
http://linkto.net/?20642040164fec5249e509d0.62054063
http://linkto.net/?230356814fec5249e73971.01196406
http://linkto.net/?1557004674fec5249e86ae4.79720566
http://linkto.net/?17981125694fec5249e87463.95744192


2 Links:
http://linkto.net/?5228080524fec528bea5403.22008294
http://linkto.net/?10142671664fec528c14db01.10957562
Links 200 MB:
http://linkto.net/?21261013684fec52a46ca115.35553930
http://linkto.net/?21472121314fec52a46d05d3.16870685
http://linkto.net/?14539875814fec52a46d0fb1.93407050
http://linkto.net/?8173576044fec52a46d18f3.50557894
http://linkto.net/?4474424854fec52a46fcfc7.55035801
http://linkto.net/?1305326874fec52a46fdac7.99855102
http://linkto.net/?3078006294fec52a46fe412.91991811
http://linkto.net/?17750875114fec52a46fedc8.17198642

¡Saludos!

Descargar American Reunion (2012) [Unrated BRRip 480p XViD-UNiQUE][V.O.Inglés][Mediafire/JF/LF/UF] Pelicula Gratis


28-jun-2012
hugopc
Platinum User
Re: American Reunion (2012) [Unrated BRRip 480p XViD-UNiQUE][V.O.Inglés][Mediafire/JF/LF/UF]
Muchisisisisismas gracias, saludos

Necesitás estar Registrado para dejar comentarios en American Reunion (2012) [Unrated BRRip 480p XViD-UNiQUE][V.O.Inglés][Mediafire/JF/LF/UF]

Información del Post

  • Puntos Puntos: 0 |
  • Visitas Visitas: 482 |
  • Autor Publicado por: Basch4553 |
  • Categoría: Películas Gratis

Posts relacionados con American Reunion (2012) [Unrated BRRip 480p XViD-UNiQUE][V.O.Inglés][Mediafire/JF/LF/UF]