Argentina Warez » Descargas Gratis » Películas Gratis En tierra de sangre y miel [2011] [DVDRip] [Castellano] [Drama Bélica]
04-jul-2012
nihbez
Gold User
En tierra de sangre y miel [2011] [DVDRip] [Castellano] [Drama Bélica]





TÍTULO ORIGINAL: In the Land of Blood and Honey
AÑO: 2011
GENERO: Drama. Bélico. Romance | Guerra de Bosnia
REPARTO: Rade Serbedzija, Zana Marjanovic, Nikola Djuricko, Goran Kostic, Branko Djuric, Goran Jevtic, Fedja Stukan, Dolya Gavanski
SINOPSIS: Antes de la guerra de los Balcanes (años 90), Danijel, un policía serbio y Ajla, una joven artista bosnia- musulmana, se conocieron y se enamoraron, pero la guerra y la terrible violencia que asoló el país los cambió para siempre. Al verse involucrados en el conflicto, su relación y la lealtad que se profesaban empezaron a desmoronarse.





Código:
Tierra.Sangre.Castellano.DVDrip.fanatico.avi
Format                                   : AVI
Format/Info                              : Audio Video Interleave
Format profile                           : OpenDML
File size                                : 1.24 GiB
Duration                                 : 2h 1mn
Overall bit rate                         : 1 460 Kbps
Writing application                      : Lavf52.78.4

Video
ID                                       : 0
Format                                   : MPEG-4 Visual
Format profile                           : Advanced Simple@L5
Format settings, BVOP                    : 2
Format settings, QPel                    : No
Format settings, GMC                     : No warppoints
Format settings, Matrix                  : Default (H.263)
Muxing mode                              : Packed bitstream
Codec ID                                 : DX50
Codec ID/Hint                            : DivX 5
Duration                                 : 2h 1mn
Bit rate                                 : 227 Kbps
Width                                    : 720 pixels
Height                                   : 306 pixels
Display aspect ratio                     : 2.35:1
Frame rate                               : 25.000 fps
Color space                              : YUV
Chroma subsampling                       : 4:2:0
Bit depth                                : 8 bits
Scan type                                : Progressive
Compression mode                         : Lossy
Bits/(Pixel*Frame)                       : 0.041
Stream size                              : 197 MiB (16%)
Writing library                          : XviD 1.2.1 (UTC 2008-12-04)

Audio
ID                                       : 1
Format                                   : AC-3
Format/Info                              : Audio Coding 3
Mode extension                           : CM (complete main)
Codec ID                                 : 2000
Duration                                 : 2h 1mn
Bit rate mode                            : Constant
Bit rate                                 : 448 Kbps
Channel(s)                               : 6 channels
Channel positions                        : Front: L C R, Side: L R, LFE
Sampling rate                            : 48.0 KHz
Bit depth                                : 16 bits
Compression mode                         : Lossy
Stream size                              : 76.4 MiB (6%)
Alignment                                : Aligned on interleaves
Interleave, duration                     : 39 ms (0.98 video frame)








http://uploadjet.net/rfzmdjhr1omz/Ti....part1.rar.htm
http://uploadjet.net/f50x0fxrgcfj/Ti....part2.rar.htm
http://uploadjet.net/a6gypoojlnsq/Ti....part3.rar.htm

Descargar En tierra de sangre y miel [2011] [DVDRip] [Castellano] [Drama Bélica] Pelicula Gratis



Necesitás estar Registrado para dejar comentarios en En tierra de sangre y miel [2011] [DVDRip] [Castellano] [Drama Bélica]

Información del Post