El gran golpe (The bank job)(2008)[Accion, robos][Bdrip.m-720p.Trial.AC3.subs]


Descargar El gran golpe (The bank job)(2008)[Accion, robos][Bdrip.m-720p.Trial.AC3.subs] Película Gratis 1 link por Mega y Mediafire



Argentina Warez » Descargas Gratis » Películas Gratis El gran golpe (The bank job)(2008)[Accion, robos][Bdrip.m-720p.Trial.AC3.subs]
06-jul-2012
lagartish
Gold User
El gran golpe (The bank job)(2008)[Accion, robos][Bdrip.m-720p.Trial.AC3.subs]


TÍTULO ORIGINAL The Bank Job
AÑO Ver trailer externo 2008
DURACIÓN Sugerir trailer/vídeo 110 min.
PAÍS Sección visual
DIRECTOR Roger Donaldson
GUIÓN Dick Clement, Ian La Frenais (Historia: George McIndoe, Aaron Shuster)
MÚSICA J. Peter Robinson
FOTOGRAFÍA Michael Coulter
REPARTO Jason Statham, Saffron Burrows, Stephen Campbell Moore, Daniel Mays, James Faulkner, Alki David, Michael Jibson, Richard Lintern, Don Gallagher, David Suchet
PRODUCTORA Arclight Films / Mosaic Media Group / Omnilab / Relativity Media / Skyline
WEB OFICIAL http://www.thebankjobmovie.com/
GÉNERO Thriller | Robos & Atracos. Años 70. Basado en hechos reales
SINOPSIS Inglaterra, 1971. Un grupo de ladrones planea y ejecuta un golpe maestro: un espectacular atraco a un banco. Pero, además del dinero y las joyas, forman parte del botín ciertos documentos que permitirían sacar a la luz un escándalo de corrupción que involucra no sólo a altos funcionarios del gobierno británico, sino también a un miembro de la familia real. (FILMAFFINITY)


Mediainfo:
Spoiler

Complete name : The Bank Job.Bdrip.m-720p.Trial.x.lagartish.mkv
Format : Matroska
File size : 2.65 GiB
Duration : 1h 52mn
Overall bit rate : 3 385 Kbps
Movie name : The Bank Job x lagartish
Encoded date : UTC 2012-07-06 14:12:20
Writing application : mkvmerge v4.8.0 ('I Got The...') creado el May 23 2011 22:30:05
Writing library : libebml v1.2.0 + libmatroska v1.1.0
Cover : Yes / Yes / Yes / Yes / Yes
Video
ID : 1
Format : AVC
Format/Info : Advanced Video Codec
Format profile : High@L4.1
Format settings, CABAC : Yes
Format settings, ReFrames : 12 frames
Format settings, GOP : M=1, N=48
Codec ID : V_MPEG4/ISO/AVC
Duration : 1h 52mn
Bit rate : 2 550 Kbps
Width : 1 280 pixels
Height : 544 pixels
Display aspect ratio : 2.35:1
Frame rate : 23.976 fps
Color space : YUV
Chroma subsampling : 4:2:0
Bit depth : 8 bits
Scan type : Progressive
Bits/(Pixel*Frame) : 0.153
Stream size : 1.95 GiB (73%)
Encoding settings : cabac=1 / ref=12 / deblock=1:-3:-3 / analyse=0x3:0x113 / me=umh / subme=10 / psy=1 / psy_rd=1.00:0.00 / mixed_ref=1 / me_range=24 / chroma_me=1 / trellis=2 / 8x8dct=1 / cqm=0 / deadzone=21,11 / fast_pskip=0 / chroma_qp_offset=-2 / threads=12 / sliced_threads=0 / nr=0 / decimate=0 / interlaced=0 / bluray_compat=0 / constrained_intra=0 / bframes=6 / b_pyramid=2 / b_adapt=2 / b_bias=0 / direct=3 / weightb=1 / open_gop=0 / weightp=2 / keyint=250 / keyint_min=23 / scenecut=40 / intra_refresh=0 / rc_lookahead=60 / rc=2pass / mbtree=1 / bitrate=2550 / ratetol=1.0 / qcomp=0.60 / qpmin=0 / qpmax=69 / qpstep=4 / cplxblur=20.0 / qblur=0.5 / ip_ratio=1.40 / aq=1:0.80
Language : English
Color primaries : BT.709-5, BT.1361, IEC 61966-2-4, SMPTE RP177
Transfer characteristics : BT.709-5, BT.1361
Matrix coefficients : BT.709-5, BT.1361, IEC 61966-2-4 709, SMPTE RP177
Audio #1
ID : 2
Format : AC-3
Format/Info : Audio Coding 3
Mode extension : CM (complete main)
Codec ID : A_AC3
Duration : 1h 52mn
Bit rate mode : Constant
Bit rate : 256 Kbps
Channel(s) : 2 channels
Channel positions : Front: L R
Sampling rate : 48.0 KHz
Bit depth : 16 bits
Compression mode : Lossy
Stream size : 205 MiB (8%)
Language : Spanish
Audio #2
ID : 3
Format : AC-3
Format/Info : Audio Coding 3
Mode extension : CM (complete main)
Codec ID : A_AC3
Duration : 1h 52mn
Bit rate mode : Constant
Bit rate : 448 Kbps
Channel(s) : 6 channels
Channel positions : Front: L C R, Side: L R, LFE
Sampling rate : 48.0 KHz
Bit depth : 16 bits
Compression mode : Lossy
Stream size : 359 MiB (13%)
Language : English
Audio #3
ID : 4
Format : AC-3
Format/Info : Audio Coding 3
Mode extension : CM (complete main)
Codec ID : A_AC3
Duration : 1h 52mn
Bit rate mode : Constant
Bit rate : 128 Kbps
Channel(s) : 6 channels
Channel positions : Front: L C R, Side: L R, LFE
Sampling rate : 48.0 KHz
Bit depth : 16 bits
Compression mode : Lossy
Stream size : 103 MiB (4%)
Language : French
Text #1
ID : 5
Format : UTF-8
Codec ID : S_TEXT/UTF8
Codec ID/Info : UTF-8 Plain Text
Language : Spanish
Text #2
ID : 6
Format : UTF-8
Codec ID : S_TEXT/UTF8
Codec ID/Info : UTF-8 Plain Text
Language : English
Text #3
ID : 7
Format : UTF-8
Codec ID : S_TEXT/UTF8
Codec ID/Info : UTF-8 Plain Text


Contenedor: mkv
Tamaño: 2.65 Gb
Tasa de Bits total 3385 kbps
Resolucion: 1280x544
Audio 1: AC3 256 kbps castellano
Audio 2: AC3 448 kbps inglés
Audio 3: AC3 128 kbps Francés
Links: 8 de 484 Mb y 1 de 474 Mb
Archivos de recuperacion: 3 rev
Subs: Español e ingles completos

Archivos intercambiables

Descarga por Jumbofiles, Netload, Freakshare, Filefactory y Rapidgator

El gran golpe.m-720p.x.lagartish

Descargar El gran golpe (The bank job)(2008)[Accion, robos][Bdrip.m-720p.Trial.AC3.subs] Pelicula Gratis



Necesitás estar Registrado para dejar comentarios en El gran golpe (The bank job)(2008)[Accion, robos][Bdrip.m-720p.Trial.AC3.subs]

Información del Post

  • Puntos Puntos: 0 |
  • Visitas Visitas: 376 |
  • Autor Publicado por: lagartish |
  • Categoría: Películas Gratis