The Three Stooges (2012) [BRRip 720p][Dual:Latino-English][Mediafire/JF/UF]


Descargar The Three Stooges (2012) [BRRip 720p][Dual:Latino-English][Mediafire/JF/UF] Película Gratis 1 link por Mega y Mediafire



Argentina Warez » Descargas Gratis » Películas Gratis The Three Stooges (2012) [BRRip 720p][Dual:Latino-English][Mediafire/JF/UF]
08-jul-2012
Basch4553
Silver User
The Three Stooges (2012) [BRRip 720p][Dual:Latino-English][Mediafire/JF/UF]
The Three Stooges (2012) [BRRip 720p][Dual:Latino-English][Mediafire/JF/UF]




Inspirada en la serie de 190 cortos, de unos 16 minutos, 'The Three Stooges' que estrenó Columbia Pictures entre 1934 y 1958. Los protagonistas son tres recién nacidos que viven en un orfanato.



Calidad: BRRip 720p
Nombre: The.Three.Stooges.2012.720p.BRRiP.LATiNO.ENG.XViD. AC3-LEGi0N
Tamaño: 2.83 GB
Video: 1 280 x 688 pixels, 3 494 Kbps, 23.976 fps
Audios: Español Latino & English [ AC3, 448 Kbps, 6 Channels]
Duración: 01:32:04
Subtítulos: Español y Español Forzados
Género: Comedia
Director: Bobby Farrelly, Peter Farrelly
Reparto: Sean Hayes, Will Sasso, Chris Diamantopoulos, Sofia Vergara, Larry David, Jane Lynch, Jennifer Hudson


Detalles:
Código:
General
Complete name                            : The.Three.Stooges.2012.720p.BRRiP.LATiNO.ENG.XViD.AC3-LEGi0N.Basch4553.avi
Format                                   : AVI
Format/Info                              : Audio Video Interleave
Format profile                           : OpenDML
File size                                : 2.83 GiB
Duration                                 : 1h 32mn
Overall bit rate                         : 4 406 Kbps
Movie name                               : The.Three.Stooges.2012.720p.BRRiP.LATiNO.ENG.XViD.AC3-LEGi0N
Genre                                    : Comedia
Recorded date                            : 06-07-2012
Writing application                      : VirtualDubMod 1.5.10.2 (build 2542/release)
Writing library                          : VirtualDubMod build 2542/release

Video
ID                                       : 0
Format                                   : MPEG-4 Visual
Format profile                           : Advanced Simple@L5
Format settings, BVOP                    : 2
Format settings, QPel                    : No
Format settings, GMC                     : No warppoints
Format settings, Matrix                  : Default (H.263)
Codec ID                                 : XVID
Codec ID/Hint                            : XviD
Duration                                 : 1h 32mn
Bit rate                                 : 3 494 Kbps
Width                                    : 1 280 pixels
Height                                   : 688 pixels
Display aspect ratio                     : 1.860
Frame rate                               : 23.976 fps
Color space                              : YUV
Chroma subsampling                       : 4:2:0
Bit depth                                : 8 bits
Scan type                                : Progressive
Compression mode                         : Lossy
Bits/(Pixel*Frame)                       : 0.165
Stream size                              : 2.25 GiB (79%)
Writing library                          : XviD 1.2.1 (UTC 2008-12-04)

Audio #1
ID                                       : 1
Format                                   : AC-3
Format/Info                              : Audio Coding 3
Mode extension                           : CM (complete main)
Codec ID                                 : 2000
Duration                                 : 1h 32mn
Bit rate mode                            : Constant
Bit rate                                 : 448 Kbps
Channel(s)                               : 6 channels
Channel positions                        : Front: L C R, Side: L R, LFE
Sampling rate                            : 48.0 KHz
Bit depth                                : 16 bits
Compression mode                         : Lossy
Stream size                              : 295 MiB (10%)
Alignment                                : Split accross interleaves
Interleave, duration                     : 42 ms (1.00 video frame)
Interleave, preload duration             : 500 ms

Audio #2
ID                                       : 2
Format                                   : AC-3
Format/Info                              : Audio Coding 3
Mode extension                           : CM (complete main)
Codec ID                                 : 2000
Duration                                 : 1h 32mn
Bit rate mode                            : Constant
Bit rate                                 : 448 Kbps
Channel(s)                               : 6 channels
Channel positions                        : Front: L C R, Side: L R, LFE
Sampling rate                            : 48.0 KHz
Bit depth                                : 16 bits
Compression mode                         : Lossy
Stream size                              : 295 MiB (10%)
Alignment                                : Split accross interleaves
Interleave, duration                     : 42 ms (1.00 video frame)
Interleave, preload duration             : 500 ms
Captura:
Spoiler




Links Intercambiables:
Las Partes de MF y JF hay que renombralas para poder extraer el archivo


Links 200 MB:
Carpeta Mediafire con las partes.
http://linkto.net/?4257288494ff99317c14f36.76126789
La parte 1 la pueden descargar de cualquiera de los demás servidores


Links 200 MB:
http://linkto.net/?8342245974ff9941eb5fbb6.18405584
http://linkto.net/?14551635154ff9941eb7af20.07680924
http://linkto.net/?15099329774ff9941eb7caa0.36873752
http://linkto.net/?16213753474ff9941eb7d4a2.24948212
http://linkto.net/?7948023204ff9941eb7de55.62244672
http://linkto.net/?15238383104ff9941eb7ecd5.84132855
http://linkto.net/?14687356814ff9941eb7fc61.06516690
http://linkto.net/?8055166894ff9941eb805a5.65598575
http://linkto.net/?843865954ff9941eb80f03.56546446
http://linkto.net/?4274606334ff9941eb817f2.71962244
http://linkto.net/?3823516494ff9941eb82162.50869503
http://linkto.net/?19501509894ff9941eb82ab4.11562686
http://linkto.net/?13701643814ff9941eb833e1.85415648
http://linkto.net/?16351232614ff9941eb83d08.25141698
La parte 1 la pueden descargar de cualquiera de los demás servidores


3 Links:
http://linkto.net/?19318078624ff99266166138.69502030
http://linkto.net/?4972916754ff99266263ba6.98553776
http://linkto.net/?11283792674ff99266265041.64104593
Links 200 MB:
http://linkto.net/?5450289704ff9928ee0c382.06487538
http://linkto.net/?5949498164ff99522b57179.24781748
http://linkto.net/?10602577084ff9928f1959e4.11352728
http://linkto.net/?2453215384ff9928f196675.00135401
http://linkto.net/?14018695194ff9928f197068.89339801
http://linkto.net/?20931906074ff9928f266844.91026171
http://linkto.net/?1856216894ff9928f267284.62377866
http://linkto.net/?15191012184ff9928f267d48.76766636
http://linkto.net/?7544760804ff9928f2686d8.88331661
http://linkto.net/?5606311744ff9928f269046.49503771
http://linkto.net/?20389559094ff9928f2699b6.57487157
http://linkto.net/?605206374ff9928f2c15d2.25973493
http://linkto.net/?2386277664ff9928f2c1f77.89210859
http://linkto.net/?20519587644ff9928f2f3eb6.08009967
http://linkto.net/?1364553334ff9928f2f4991.39115838


Links 200 MB:
http://linkto.net/?13549690964ff99799aef310.64441153
http://linkto.net/?19952892894ff99799b1a535.80663445
http://linkto.net/?2710872074ff99799b1b5c6.94188982
http://linkto.net/?2822826134ff99799b1bf97.83672072
http://linkto.net/?457828644ff99799b1c8c2.41024624
http://linkto.net/?12532092974ff99799b1d219.43099238
http://linkto.net/?7507762274ff99799b1dc03.30929192
http://linkto.net/?10254443744ff99799b1e585.01029906
http://linkto.net/?399460204ff99799b1eea5.13060017
http://linkto.net/?2271167634ff99799b84943.63899155
http://linkto.net/?7047288374ff99799b854c8.16298004
http://linkto.net/?1732057614ff99799b85e28.22145611
http://linkto.net/?3056152294ff99799b867f9.27761371
http://linkto.net/?16903516884ff99799ba39b8.98742963
http://linkto.net/?15331964794ff99799ba4359.73867367

¡Saludos!

Descargar The Three Stooges (2012) [BRRip 720p][Dual:Latino-English][Mediafire/JF/UF] Pelicula Gratis



Necesitás estar Registrado para dejar comentarios en The Three Stooges (2012) [BRRip 720p][Dual:Latino-English][Mediafire/JF/UF]

Información del Post

  • Puntos Puntos: 0 |
  • Visitas Visitas: 514 |
  • Autor Publicado por: Basch4553 |
  • Categoría: Películas Gratis