Men of Honor (2000)AVI ingles con subs Gratis


Descargar Men of Honor (2000)AVI ingles con subs Gratis Película Gratis 1 link por Mega y Mediafire



Argentina Warez » Descargas Gratis » Películas Gratis Men of Honor (2000)AVI ingles con subs Gratis
09-jul-2012
gonzosv
Black User
Men of Honor (2000)AVI ingles con subs Gratis


Men of Honor (2000)AVI ingles con subs

SINOPSIS

Carl Brashear nació en Kentucky, en el seno de una familia de campesinos negros cuyas vidas han estado fuertemente marcadas por el racismo. Mac, el padre de Carl, le enseña desde muy pequeño a valorar la perseverancia y a vencer los obstáculos que los demás le impongan a sus sueños. En el caso de Carl, su sueño es pertenecer a la escuela de buzos de la marina de los Estados Unidos. (FILMAFFINITY)

GENERO: Drama. Acción | Racismo. Basado en hechos reales. Submarinismo
DIRECTOR:George Tillman Jr.
REPARTO:Robert De Niro, Cuba Gooding Jr., Charlize Theron, Michael Rapaport, Hal Holbrook, David Keith, Joshua Leonard, Powers Boothe, David Conrad, Aunjanne Ellis, Ryan Honey, Scott Kraft, Holt McCallany, Dennis Troutman, Joshua Feinman, Theo Nicholas Pagones
IDIOMA: ingles
SUBTITULOS: español en un archivo SRT


Screenshots






DOWNLOADS



http://hides.at/ffe5594806e53f2a953f19dcf6db00d9

INFO:

General
Complete name : MNOH.avi
Format : AVI
Format/Info : Audio Video Interleave
File size : 700 MiB
Duration : 2h 8mn
Overall bit rate : 760 Kbps
Writing application : VirtualDubMod 1.5.4.1 (build 2178/release)
Writing library : VirtualDubMod build 2178/release

Video
ID : 0
Format : MPEG-4 Visual
Format profile : Advanced Simple@L5
Format settings, BVOP : Yes
Format settings, QPel : No
Format settings, GMC : No warppoints
Format settings, Matrix : Custom
Codec ID : XVID
Codec ID/Hint : XviD
Duration : 2h 8mn
Bit rate : 634 Kbps
Width : 512 pixels
Height : 384 pixels
Display aspect ratio : 4:3
Frame rate : 23.976 fps
Color space : YUV
Chroma subsampling : 4:2:0
Bit depth : 8 bits
Scan type : Progressive
Bits/(Pixel*Frame) : 0.135
Stream size : 585 MiB (84%)
Writing library : XviD 1.2.1 (UTC 2008-12-04)

Audio
ID : 1
Format : MPEG Audio
Format version : Version 1
Format profile : Layer 3
Mode : Joint stereo
Mode extension : MS Stereo
Codec ID : 55
Codec ID/Hint : MP3
Duration : 2h 8mn
Bit rate mode : Variable
Bit rate : 113 Kbps
Nominal bit rate : 128 Kbps
Channel(s) : 2 channels
Sampling rate : 48.0 KHz
Stream size : 104 MiB (15%)
Alignment : Aligned on interleaves
Interleave, duration : 24 ms (0.58 video frame)
Interleave, preload duration : 163 ms
Writing library : LAME3.98r
Encoding settings : -m j -V 4 -q 2 -lowpass 17 --abr 128
Language : English


Descargar Men of Honor (2000)AVI ingles con subs Gratis Pelicula Gratis



Necesitás estar Registrado para dejar comentarios en la descarga Men of Honor (2000)AVI ingles con subs Gratis

Información del Post