Descargar La Novia Cadaver [2005] [HD1080] [Cast/Ing] [Multihost] Gratis


Descargar Descargar La Novia Cadaver [2005] [HD1080] [Cast/Ing] [Multihost] Gratis Película Gratis 1 link por Mega y Mediafire



Argentina Warez » Descargas Gratis » Películas Gratis Descargar La Novia Cadaver [2005] [HD1080] [Cast/Ing] [Multihost] Gratis
11-jul-2012
mjasx
Silver User
Descargar La Novia Cadaver [2005] [HD1080] [Cast/Ing] [Multihost] Gratis




Título original: Tim Burton's Corpse Bride
Año: 2005
Director: * Tim Burton, Mike Johnson
Reparto: * Animacion
Genero: Animación. Fantástico. Comedia. Romance. Musical | Monstruos. Stop Motion. Bodas. Comedia de terror
Productora: Coproducción EEUU-Reino Unido; Warner Bros. Pictures / Tim Burton Animation Co. / Laika Entertainment / Patalex Productions / Tim Burton Productions / Will Vinton Studios
Idioma: Castellano / Ingles
Subtitulos: Cast / Ing
Video: AVCHD [mkv]
Resolucion: 1920 x 1080
Duracion: 1 h. 17 min.
Tamaño: 4,71 GB


Subida Compartida por los uploaders: Awa y mjasx el "Rey Duende"




Código:
General
Complete name                            : @:\La Novia Cadaver HD 1080\La Novia Cadaver Dual [by mjasx].mkv
Format                                   : Matroska
Format version                           : Version 2
File size                                : 4.71 GiB
Duration                                 : 1h 17mn
Overall bit rate                         : 8 739 Kbps
Writing application                      : mkvmerge v5.5.0 ('Healer') built on Apr  6 2012 21:43:24
Writing library                          : libebml v1.2.3 + libmatroska v1.3.0

Video
ID                                       : 1
Format                                   : AVC
Format/Info                              : Advanced Video Codec
Format profile                           : High@L5.1
Format settings, CABAC                   : Yes
Format settings, ReFrames                : 8 frames
Muxing mode                              : Header stripping
Codec ID                                 : V_MPEG4/ISO/AVC
Duration                                 : 1h 17mn
Bit rate                                 : 7 662 Kbps
Width                                    : 1 920 pixels
Height                                   : 1 040 pixels
Display aspect ratio                     : 1.85:1
Frame rate                               : 23.976 fps
Original frame rate                      : 24.000 fps
Color space                              : YUV
Chroma subsampling                       : 4:2:0
Bit depth                                : 8 bits
Scan type                                : Progressive
Bits/(Pixel*Frame)                       : 0.160
Stream size                              : 4.03 GiB (86%)
Title                                    : La Novia Cadaver by mjasx and Awa
Writing library                          : x264
Default                                  : Yes
Forced                                   : No

Audio #1
ID                                       : 2
Format                                   : AC-3
Format/Info                              : Audio Coding 3
Mode extension                           : CM (complete main)
Format settings, Endianness              : Big
Muxing mode                              : Header stripping
Codec ID                                 : A_AC3
Duration                                 : 1h 17mn
Bit rate mode                            : Constant
Bit rate                                 : 640 Kbps
Channel(s)                               : 6 channels
Channel positions                        : Front: L C R, Side: L R, LFE
Sampling rate                            : 48.0 KHz
Bit depth                                : 16 bits
Compression mode                         : Lossy
Stream size                              : 353 MiB (7%)
Title                                    : Castellano
Language                                 : Spanish
Default                                  : Yes
Forced                                   : No

Audio #2
ID                                       : 3
Format                                   : AC-3
Format/Info                              : Audio Coding 3
Mode extension                           : CM (complete main)
Format settings, Endianness              : Big
Muxing mode                              : Header stripping
Codec ID                                 : A_AC3
Duration                                 : 1h 17mn
Bit rate mode                            : Constant
Bit rate                                 : 448 Kbps
Channel(s)                               : 6 channels
Channel positions                        : Front: L C R, Side: L R, LFE
Sampling rate                            : 48.0 KHz
Bit depth                                : 16 bits
Compression mode                         : Lossy
Stream size                              : 247 MiB (5%)
Title                                    : Ingles
Language                                 : English
Default                                  : No
Forced                                   : No

Text #1
ID                                       : 4
Format                                   : UTF-8
Codec ID                                 : S_TEXT/UTF8
Codec ID/Info                            : UTF-8 Plain Text
Title                                    : Subt Completos Castellano
Language                                 : Spanish
Default                                  : No
Forced                                   : No

Text #2
ID                                       : 5
Format                                   : UTF-8
Codec ID                                 : S_TEXT/UTF8
Codec ID/Info                            : UTF-8 Plain Text
Title                                    : Subt Completos Ingles
Language                                 : English
Default                                  : No
Forced                                   : No





Un hombre pone en el dedo de una mujer muerta, como broma, un anillo de compromiso. Pero lo que no sabe el pobre mortal es que la muerta reclamará sus derechos como "prometida".













Spoiler
https://www.rapidshare.com/files/2041221154/Pi_Ba_Pes_To_Sa_X__by_mjasx_.zip.001
https://www.rapidshare.com/files/4240984832/Pi_Ba_Pes_To_Sa_X__by_mjasx_.zip.002
https://www.rapidshare.com/files/245767992/Pi_Ba_Pes_To_Sa_X__by_mjasx_.zip.003
https://www.rapidshare.com/files/3802337953/Pi_Ba_Pes_To_Sa_X__by_mjasx_.zip.004
https://www.rapidshare.com/files/2472980117/Pi_Ba_Pes_To_Sa_X__by_mjasx_.zip.005
https://www.rapidshare.com/files/2541521611/Pi_Ba_Pes_To_Sa_X__by_mjasx_.zip.006
https://www.rapidshare.com/files/3771717087/Pi_Ba_Pes_To_Sa_X__by_mjasx_.zip.007


http://letitbit.net/download/56459.5e2c8687acf3329e28f31591af80/Pi_Ba_Pes_To_Sa_X__by_mjasx_.zip.001.html
http://letitbit.net/download/26682.2c78a768bcca44f6f1d9081ed48c/Pi_Ba_Pes_To_Sa_X__by_mjasx_.zip.002.html
http://letitbit.net/download/62808.6454d90d8f67efe4c63851c02ca4/Pi_Ba_Pes_To_Sa_X__by_mjasx_.zip.003.html
http://letitbit.net/download/84267.8cacd8dbaaf8f03abc7456cbef3c/Pi_Ba_Pes_To_Sa_X__by_mjasx_.zip.004.html
http://letitbit.net/download/44781.46198dfd88277d239a34d5d0c0b6/Pi_Ba_Pes_To_Sa_X__by_mjasx_.zip.005.html
http://letitbit.net/download/88756.8a059bae7a9e19c59b17af442818/Pi_Ba_Pes_To_Sa_X__by_mjasx_.zip.006.html
http://letitbit.net/download/09389.0b71339c19863791ac7f5b5794b2/Pi_Ba_Pes_To_Sa_X__by_mjasx_.zip.007.html



http://shareflare.net/download/54061.5e2c8687acf3329e28f31591af80/Pi_Ba_Pes_To_Sa_X__by_mjasx_.zip.001.html
http://shareflare.net/download/28957.2c78a768bcca44f6f1d9081ed48c/Pi_Ba_Pes_To_Sa_X__by_mjasx_.zip.002.html
http://shareflare.net/download/61617.6454d90d8f67efe4c63851c02ca4/Pi_Ba_Pes_To_Sa_X__by_mjasx_.zip.003.html
http://shareflare.net/download/83054.8cacd8dbaaf8f03abc7456cbef3c/Pi_Ba_Pes_To_Sa_X__by_mjasx_.zip.004.html
http://shareflare.net/download/49100.46198dfd88277d239a34d5d0c0b6/Pi_Ba_Pes_To_Sa_X__by_mjasx_.zip.005.html
http://shareflare.net/download/82560.8a059bae7a9e19c59b17af442818/Pi_Ba_Pes_To_Sa_X__by_mjasx_.zip.006.html
http://shareflare.net/download/04377.0b71339c19863791ac7f5b5794b2/Pi_Ba_Pes_To_Sa_X__by_mjasx_.zip.007.html


http://vip-file.com/download/51476.5e2c8687acf3329e28f31591af80/Pi_Ba_Pes_To_Sa_X__by_mjasx_.zip.001.html
http://vip-file.com/download/26893.2c78a768bcca44f6f1d9081ed48c/Pi_Ba_Pes_To_Sa_X__by_mjasx_.zip.002.html
http://vip-file.com/download/63350.6454d90d8f67efe4c63851c02ca4/Pi_Ba_Pes_To_Sa_X__by_mjasx_.zip.003.html
http://vip-file.com/download/88031.8cacd8dbaaf8f03abc7456cbef3c/Pi_Ba_Pes_To_Sa_X__by_mjasx_.zip.004.html
http://vip-file.com/download/46350.46198dfd88277d239a34d5d0c0b6/Pi_Ba_Pes_To_Sa_X__by_mjasx_.zip.005.html
http://vip-file.com/download/85065.8a059bae7a9e19c59b17af442818/Pi_Ba_Pes_To_Sa_X__by_mjasx_.zip.006.html
http://vip-file.com/download/04105.0b71339c19863791ac7f5b5794b2/Pi_Ba_Pes_To_Sa_X__by_mjasx_.zip.007.html

Descargar Descargar La Novia Cadaver [2005] [HD1080] [Cast/Ing] [Multihost] Gratis Pelicula Gratis


06-nov-2012
cascabel2k2
New User
Re: Descargar La Novia Cadaver [2005] [HD1080] [Cast/Ing] [Multihost] Gratis
muchas Gracias

Necesitás estar Registrado para dejar comentarios en la descarga Descargar La Novia Cadaver [2005] [HD1080] [Cast/Ing] [Multihost] Gratis

Información del Post