John Carter (2012)[DVDRIP][Castellano][Aventuras]


Descargar John Carter (2012)[DVDRIP][Castellano][Aventuras] Película Gratis 1 link por Mega y Mediafire



Argentina Warez » Descargas Gratis » Películas Gratis John Carter (2012)[DVDRIP][Castellano][Aventuras]
14-jul-2012
nihbez
Gold User
John Carter (2012)[DVDRIP][Castellano][Aventuras]





Adaptación de ‘Una princesa de Marte’, la primera novela fantástica de Edgar Rice Burroughs.
John Carter es un veterano de la Guerra Civil norteamericana (1861-1865) que se halla en el planeta Marte.
Producida por Disney-Pixar, combina imagen real y digital.


TÍTULO ORIGINAL
John Carter
(John Carter of Mars)
AÑO
2012
DURACIÓN
132 min.
DIRECTOR
Andrew Stanton
GUIÓN
Michael Chabon, Andrew Stanton, Mark Andrews (Novela: Edgar Rice Burroughs)
MÚSICA
Michael Giacchino
FOTOGRAFÍA
Daniel Mindel
REPARTO
Taylor Kitsch, Lynn Collins, Willem Dafoe, Bryan Cranston, Mark Strong, Thomas Haden Church, Samantha Morton, Ciarán Hinds, Dominic West, Polly Walker, James Purefoy, Jonathan Hyde, Daryl Sabara
PRODUCTORA
Walt Disney Pictures
GÉNERO
Ciencia ficción. Fantástico. Aventuras





Código:
John.Carter.DVDrip.fanatico.avi
Format                                   : AVI
Format/Info                              : Audio Video Interleave
File size                                : 1.60 GiB
Duration                                 : 2h 12mn
Overall bit rate                         : 1 732 Kbps
Writing application                      : VirtualDubMod 1.5.10.2 (build 2540/release)
Writing library                          : VirtualDubMod build 2540/release

Video
ID                                       : 0
Format                                   : MPEG-4 Visual
Format profile                           : Advanced Simple@L5
Format settings, BVOP                    : 2
Format settings, QPel                    : No
Format settings, GMC                     : No warppoints
Format settings, Matrix                  : Default (MPEG)
Codec ID                                 : XVID
Codec ID/Hint                            : XviD
Duration                                 : 2h 12mn
Bit rate                                 : 1 275 Kbps
Width                                    : 720 pixels
Height                                   : 304 pixels
Display aspect ratio                     : 2.35:1
Frame rate                               : 23.976 fps
Color space                              : YUV
Chroma subsampling                       : 4:2:0
Bit depth                                : 8 bits
Scan type                                : Progressive
Compression mode                         : Lossy
Bits/(Pixel*Frame)                       : 0.243
Stream size                              : 1.18 GiB (74%)
Writing library                          : XviD 64

Audio
ID                                       : 1
Format                                   : AC-3
Format/Info                              : Audio Coding 3
Mode extension                           : CM (complete main)
Codec ID                                 : 2000
Duration                                 : 2h 12mn
Bit rate mode                            : Constant
Bit rate                                 : 448 Kbps
Channel(s)                               : 6 channels
Channel positions                        : Front: L C R, Side: L R, LFE
Sampling rate                            : 48.0 KHz
Bit depth                                : 16 bits
Compression mode                         : Lossy
Stream size                              : 423 MiB (26%)
Alignment                                : Split accross interleaves
Interleave, duration                     : 42 ms (1.00 video frame)
Interleave, preload duration             : 500 ms







Código:
http://uploadjet.net/o2cirb5deals/John.Carter.DVDrip.fanatico.avi.part1.rar.htm
http://uploadjet.net/6t6zt15vp2ji/John.Carter.DVDrip.fanatico.avi.part2.rar.htm
http://uploadjet.net/1mrna23jhbcp/John.Carter.DVDrip.fanatico.avi.part3.rar.htm
http://uploadjet.net/rjhlfg0ptylh/John.Carter.DVDrip.fanatico.avi.part4.rar.htm

Descargar John Carter (2012)[DVDRIP][Castellano][Aventuras] Pelicula Gratis



Necesitás estar Registrado para dejar comentarios en John Carter (2012)[DVDRIP][Castellano][Aventuras]

Información del Post