Argentina Warez » Descargas Gratis » Películas Gratis La Invencion De Hugo 2011 [DVDRip][Castellano Ac3 5.1]
22-jul-2012
nihbez
Gold User
La Invencion De Hugo 2011 [DVDRip][Castellano Ac3 5.1]





TITULO ORIGINAL: Hugo (Hugo Cabret)
TITULO ESPAÑOL: La Invencion De Hugo
AÑO: 2011
PAIS: Estados Unidos
DURACION: 126 min.
DIRECTOR: Martin Scorsese
GUION: John Logan (Libro: Brian Selznick)
MUSICA: Howard Shore
FOTOGRAFIA: Robert Richardson
PRODUCTORA: GK Films / Infinitum Nihil / Warner Bros. Pictures
GENERO: Aventura | Drama | Familiar
REPARTO: Asa Butterfield, Chloë Grace Moretz, Ben Kingsley, Sacha Baron Cohen, Jude Law, Emily Mortimer, Michael Stuhlbarg, Ray Winstone, Christopher Lee, Richard Griffiths, Helen McCrory, Frances de la Tour

París, años 30. Hugo (Asa Butterfield) es un niño huérfano que vive escondido en una estación y se ocupa de arreglar relojes. Se verá envuelto en una misteriosa aventura cuando intente reparar un robot estropeado. Un día conoce a una chica (Chloë Moretz) que tiene la llave que podría resolver el misterio del robot...




Código:
Invencion.Hugo.DVDrip.Castellano.fanatico.avi
Format                                   : AVI
Format/Info                              : Audio Video Interleave
File size                                : 1.42 GiB
Duration                                 : 2h 6mn
Overall bit rate                         : 1 605 Kbps
Writing application                      : VirtualDubMod 1.5.10.2 (build 2542/release)
Writing library                          : VirtualDubMod build 2542/release

Video
ID                                       : 0
Format                                   : MPEG-4 Visual
Format profile                           : Simple@L1
Format settings, BVOP                    : No
Format settings, QPel                    : No
Format settings, GMC                     : No warppoints
Format settings, Matrix                  : Default (H.263)
Codec ID                                 : XVID
Codec ID/Hint                            : XviD
Duration                                 : 2h 6mn
Bit rate                                 : 1 148 Kbps
Width                                    : 720 pixels
Height                                   : 400 pixels
Display aspect ratio                     : 16:9
Frame rate                               : 23.976 fps
Color space                              : YUV
Chroma subsampling                       : 4:2:0
Bit depth                                : 8 bits
Scan type                                : Progressive
Compression mode                         : Lossy
Bits/(Pixel*Frame)                       : 0.166
Stream size                              : 1.01 GiB (72%)
Writing library                          : Lavc51.40.2

Audio
ID                                       : 1
Format                                   : AC-3
Format/Info                              : Audio Coding 3
Mode extension                           : CM (complete main)
Codec ID                                 : 2000
Duration                                 : 2h 6mn
Bit rate mode                            : Constant
Bit rate                                 : 448 Kbps
Channel(s)                               : 6 channels
Channel positions                        : Front: L C R, Side: L R, LFE
Sampling rate                            : 48.0 KHz
Bit depth                                : 16 bits
Compression mode                         : Lossy
Stream size                              : 405 MiB (28%)
Alignment                                : Split accross interleaves
Interleave, duration                     : 42 ms (1.00 video frame)
Interleave, preload duration             : 500 ms






Código:
http://uploadjet.net/1dy8ovgzr619/Invencion.Hugo.DVDrip.Castellano.fanatico.avi.part1.rar.htm
http://uploadjet.net/ixdxchvt551u/Invencion.Hugo.DVDrip.Castellano.fanatico.avi.part2.rar.htm
http://uploadjet.net/7yo9pq0rqgq5/Invencion.Hugo.DVDrip.Castellano.fanatico.avi.part3.rar.htm

Descargar La Invencion De Hugo 2011 [DVDRip][Castellano Ac3 5.1] Pelicula Gratis


24-jul-2012
rillco89
Black User
Re: La Invencion De Hugo 2011 [DVDRip][Castellano Ac3 5.1]
gracias
24-jul-2012
yemaha
Platinum User
Re: La Invencion De Hugo 2011 [DVDRip][Castellano Ac3 5.1]
gracias bajando se agradece el aporte
15-ago-2012
carastil
Black User
Re: La Invencion De Hugo 2011 [DVDRip][Castellano Ac3 5.1]
gracias
15-ago-2012
3lflakodr
Platinum User
Re: La Invencion De Hugo 2011 [DVDRip][Castellano Ac3 5.1]
bajando... gracias bro

Necesitás estar Registrado para dejar comentarios en La Invencion De Hugo 2011 [DVDRip][Castellano Ac3 5.1]

Información del Post