Argentina Warez » Descargas Gratis » Películas Gratis Romeo Debe Morir [DVDRip][Latino][2000][MF-JF-PL]
23-jul-2012
MecF
Premier User
Romeo Debe Morir [DVDRip][Latino][2000][MF-JF-PL]
Romeo Debe Morir [DVDRip][Latino][2000][MF-JF-PL]



Sinopsis:
Han Sing es un ex-policía que investiga el asesinato de su hermano, que tenía tratos con la mafia china en América. La hija de un capo mafioso, Trish, le ayudará a encontrar a los asesinos de su hermano.

Datos del Ripeo:
Spoiler


Código:
General
Complete name                            : Rmo_Dbe_Mrir_Lat.avi
Format                                   : AVI
Format/Info                              : Audio Video Interleave
File size                                : 752 MiB
Duration                                 : 1h 55mn
Overall bit rate                         : 914 Kbps
Writing application                      : VirtualDubMod 1.5.10.2 (build 2540/release)
Writing library                          : VirtualDubMod build 2540/release

Video
ID                                       : 0
Format                                   : MPEG-4 Visual
Format profile                           : Advanced Simple@L5
Format settings, BVOP                    : 2
Format settings, QPel                    : No
Format settings, GMC                     : No warppoints
Format settings, Matrix                  : Default (H.263)
Muxing mode                              : Packed bitstream
Codec ID                                 : XVID
Codec ID/Hint                            : XviD
Duration                                 : 1h 55mn
Bit rate                                 : 774 Kbps
Width                                    : 576 pixels
Height                                   : 240 pixels
Display aspect ratio                     : 2.40:1
Frame rate                               : 29.970 fps
Color space                              : YUV
Chroma subsampling                       : 4:2:0
Bit depth                                : 8 bits
Scan type                                : Progressive
Compression mode                         : Lossy
Bits/(Pixel*Frame)                       : 0.187
Stream size                              : 637 MiB (85%)
Writing library                          : XviD 1.1.2 (UTC 2006-11-01)

Audio
ID                                       : 1
Format                                   : MPEG Audio
Format version                           : Version 1
Format profile                           : Layer 3
Mode                                     : Joint stereo
Mode extension                           : MS Stereo
Codec ID                                 : 55
Codec ID/Hint                            : MP3
Duration                                 : 1h 55mn
Bit rate mode                            : Constant
Bit rate                                 : 128 Kbps
Channel(s)                               : 2 channels
Sampling rate                            : 48.0 KHz
Compression mode                         : Lossy
Stream size                              : 105 MiB (14%)
Alignment                                : Aligned on interleaves
Interleave, duration                     : 33 ms (1.00 video frame)
Interleave, preload duration             : 504 ms



Descargas

(Click en la imágen para descargar)






Contraseña: MecF

Más Películas:
[/CENTER]

Descargar Romeo Debe Morir [DVDRip][Latino][2000][MF-JF-PL] Pelicula Gratis


05-ago-2013
Moscoso2
White User
Re: Romeo Debe Morir [DVDRip][Latino][2000][MF-JF-PL]
no sirve tu aporte sera que lo puedas resubir y mandarmelo a mi correo por fa es aries.moscoso@hotmail.com

Necesitás estar Registrado para dejar comentarios en Romeo Debe Morir [DVDRip][Latino][2000][MF-JF-PL]

Información del Post