¿Y Las Rubias Donde Están? [DVDRip][Latino][2004][MF-JF-PL]


Descargar ¿Y Las Rubias Donde Están? [DVDRip][Latino][2004][MF-JF-PL] Película Gratis 1 link



Argentina Warez » Descargas Gratis » Películas Gratis ¿Y Las Rubias Donde Están? [DVDRip][Latino][2004][MF-JF-PL]
23-jul-2012
MecF
Premier User
¿Y Las Rubias Donde Están? [DVDRip][Latino][2004][MF-JF-PL]
¿Y Las Rubias Donde Están? [DVDRip][Latino][2004] Por Mediafire, JumboFiles, PutLocker



Sinopsis:
Shawn y Marlon Wayans interpretan a dos ambiciosos pero desafortunados agentes del FBI que deben tomar una misión secreta disfrazados de mujeres, como debutantes de la alta sociedad en un exclusivo resort de los Hamptons para investigar un pitazo de un secuestro. Pero mientras ellos se pavonean en el mayor evento social del año, descubren que adentrarse en el escenario de la alta sociedad es mucho más difícil de lo que parece.

Datos del Ripeo:
Spoiler


Código:
General
Complete name                            : /disco3/spastrek/public_html/rapidleech/files/Descargas-Directas/Y_Dnd_Estn_Ls_Rbas_Lat.avi
Format                                   : AVI
Format/Info                              : Audio Video Interleave
File size                                : 1.07 GiB
Duration                                 : 1h 54mn
Overall bit rate                         : 1 339 Kbps
Writing application                      : VirtualDubMod 1.5.4.1 (build 2178/release)
Writing library                          : VirtualDubMod build 2178/release

Video
ID                                       : 0
Format                                   : MPEG-4 Visual
Format profile                           : Advanced Simple@L5
Format settings, BVOP                    : 1
Format settings, QPel                    : No
Format settings, GMC                     : No warppoints
Format settings, Matrix                  : Custom
Codec ID                                 : XVID
Codec ID/Hint                            : XviD
Duration                                 : 1h 54mn
Bit rate                                 : 884 Kbps
Width                                    : 640 pixels
Height                                   : 352 pixels
Display aspect ratio                     : 16:9
Frame rate                               : 23.976 fps
Color space                              : YUV
Chroma subsampling                       : 4:2:0
Bit depth                                : 8 bits
Scan type                                : Progressive
Compression mode                         : Lossy
Bits/(Pixel*Frame)                       : 0.164
Stream size                              : 727 MiB (66%)
Writing library                          : XviD 1.1.2 (UTC 2006-11-01)

Audio
ID                                       : 1
Format                                   : AC-3
Format/Info                              : Audio Coding 3
Mode extension                           : CM (complete main)
Codec ID                                 : 2000
Duration                                 : 1h 54mn
Bit rate mode                            : Constant
Bit rate                                 : 448 Kbps
Channel(s)                               : 6 channels
Channel positions                        : Front: L C R, Side: L R, LFE
Sampling rate                            : 48.0 KHz
Bit depth                                : 16 bits
Compression mode                         : Lossy
Stream size                              : 368 MiB (33%)
Alignment                                : Split accross interleaves
Interleave, duration                     : 96 ms (2.30 video frames)
Interleave, preload duration             : 96 ms



Descargas

(Click en la imágen para descargar)






Contraseña: MecF

Más Películas:

Descargar ¿Y Las Rubias Donde Están? [DVDRip][Latino][2004][MF-JF-PL] Pelicula Gratis



Necesitás estar Registrado para dejar comentarios en ¿Y Las Rubias Donde Están? [DVDRip][Latino][2004][MF-JF-PL]

Información del Post