First Dog [DVDRip][Latino][2010][MF-PL-JF]


Descargar First Dog [DVDRip][Latino][2010][MF-PL-JF] Película Gratis 1 link por Mega y Mediafire



Argentina Warez » Descargas Gratis » Películas Gratis First Dog [DVDRip][Latino][2010][MF-PL-JF]
23-jul-2012
MecF
Premier User
First Dog [DVDRip][Latino][2010][MF-PL-JF]
First Dog [DVDRip][Latino][2010]Por MediaFire, JumboFiles y PutLocker



Sinopsis:
Un niño de crianza se hace amigo de un perro perdido que resulta pertenecer al Presidente de los Estados Unidos. El niño decide huir de la casa de acogida para devolver el perro a la Casa Blanca

Datos del Ripeo:
Spoiler


Código:
General
Complete name                            : Frst_Dg_Lat.avi
Format                                   : AVI
Format/Info                              : Audio Video Interleave
File size                                : 698 MiB
Duration                                 : 1h 37mn
Overall bit rate                         : 1 002 Kbps
Director                                 : YamjaV
Writing application                      : VirtualDubMod 1.5.10.2 (build 2540/release)
Writing library                          : VirtualDubMod build 2540/release
Copyright                                : WwW.LaZonaPremium.OrG

Video
ID                                       : 0
Format                                   : MPEG-4 Visual
Format profile                           : Advanced Simple@L5
Format settings, BVOP                    : 1
Format settings, QPel                    : No
Format settings, GMC                     : No warppoints
Format settings, Matrix                  : Custom
Codec ID                                 : XVID
Codec ID/Hint                            : XviD
Duration                                 : 1h 37mn
Bit rate                                 : 864 Kbps
Width                                    : 688 pixels
Height                                   : 384 pixels
Display aspect ratio                     : 16:9
Frame rate                               : 23.976 fps
Color space                              : YUV
Chroma subsampling                       : 4:2:0
Bit depth                                : 8 bits
Scan type                                : Progressive
Compression mode                         : Lossy
Bits/(Pixel*Frame)                       : 0.136
Stream size                              : 603 MiB (86%)
Writing library                          : XviD 64

Audio
ID                                       : 1
Format                                   : MPEG Audio
Format version                           : Version 1
Format profile                           : Layer 3
Mode                                     : Joint stereo
Mode extension                           : MS Stereo
Codec ID                                 : 55
Codec ID/Hint                            : MP3
Duration                                 : 1h 37mn
Bit rate mode                            : Constant
Bit rate                                 : 128 Kbps
Channel(s)                               : 2 channels
Sampling rate                            : 48.0 KHz
Compression mode                         : Lossy
Delay relative to video                  : 384ms
Stream size                              : 89.2 MiB (13%)
Alignment                                : Aligned on interleaves
Interleave, duration                     : 42 ms (1.00 video frame)
Interleave, preload duration             : 504 ms
Writing library                          : LAME3.98r
Encoding settings                        : -m j -V 4 -q 2 -lowpass 17 -b 128


Descargas

(Click en la imágen para descargar)






Contraseña: MecF

Más Películas:

Descargar First Dog [DVDRip][Latino][2010][MF-PL-JF] Pelicula Gratis



Necesitás estar Registrado para dejar comentarios en First Dog [DVDRip][Latino][2010][MF-PL-JF]

Información del Post