G.I. Joe: El Origen de Cobra [DVDRip][Latino][2009][MediaFire-JumboFiles-PutLocker]


Descargar G.I. Joe: El Origen de Cobra [DVDRip][Latino][2009][MediaFire-JumboFiles-PutLocker] Película Gratis 1 link por Mega y Mediafire



Argentina Warez » Descargas Gratis » Películas Gratis G.I. Joe: El Origen de Cobra [DVDRip][Latino][2009][MediaFire-JumboFiles-PutLocker]
23-jul-2012
MecF
Premier User
G.I. Joe: El Origen de Cobra [DVDRip][Latino][2009][MediaFire-JumboFiles-PutLocker]
G.I. Joe: El Origen de Cobra [DVDRip][Latino][2009] Por MediaFire, JumboFiles y PutLocker



Sinopsis:
Desde el desierto egipcio hasta lo más profundo de las capas polares, el equipo élite G.I. JOE utiliza lo último en armas y la nueva generación de artefactos para espías con el fin de combatir al corrupto traficante de armas Destro y la creciente amenaza de la misteriosa organización Cobra. Estos valientes guerreros demostrarán su potencial con el fin de prevenir que Destro y Cobra hundan al mundo en el más terrible caos.

Datos del Ripeo:
Spoiler


Código:
General
Complete name                            : GI_Je_Lat.avi
Format                                   : AVI
Format/Info                              : Audio Video Interleave
File size                                : 1.53 GiB
Duration                                 : 1h 57mn
Overall bit rate                         : 1 850 Kbps
Writing application                      : VirtualDubMod 1.5.10.2 (build 2540/release)
Writing library                          : VirtualDubMod build 2540/release

Video
ID                                       : 0
Format                                   : MPEG-4 Visual
Format profile                           : Advanced Simple@L5
Format settings, BVOP                    : 1
Format settings, QPel                    : No
Format settings, GMC                     : No warppoints
Format settings, Matrix                  : Default (H.263)
Codec ID                                 : XVID
Codec ID/Hint                            : XviD
Duration                                 : 1h 57mn
Bit rate                                 : 940 Kbps
Width                                    : 720 pixels
Height                                   : 288 pixels
Display aspect ratio                     : 2.500
Frame rate                               : 23.976 fps
Color space                              : YUV
Chroma subsampling                       : 4:2:0
Bit depth                                : 8 bits
Scan type                                : Progressive
Compression mode                         : Lossy
Bits/(Pixel*Frame)                       : 0.189
Stream size                              : 794 MiB (51%)
Writing library                          : XviD 1.2.1 (UTC 2008-12-04)

Audio #1
ID                                       : 1
Format                                   : AC-3
Format/Info                              : Audio Coding 3
Mode extension                           : CM (complete main)
Codec ID                                 : 2000
Duration                                 : 1h 57mn
Bit rate mode                            : Constant
Bit rate                                 : 448 Kbps
Channel(s)                               : 6 channels
Channel positions                        : Front: L C R, Side: L R, LFE
Sampling rate                            : 48.0 KHz
Bit depth                                : 16 bits
Compression mode                         : Lossy
Delay relative to video                  : 1s 300ms
Stream size                              : 378 MiB (24%)
Alignment                                : Split accross interleaves
Interleave, duration                     : 42 ms (1.00 video frame)
Interleave, preload duration             : 500 ms

Audio #2
ID                                       : 2
Format                                   : AC-3
Format/Info                              : Audio Coding 3
Mode extension                           : CM (complete main)
Codec ID                                 : 2000
Duration                                 : 1h 57mn
Bit rate mode                            : Constant
Bit rate                                 : 448 Kbps
Channel(s)                               : 6 channels
Channel positions                        : Front: L C R, Side: L R, LFE
Sampling rate                            : 48.0 KHz
Bit depth                                : 16 bits
Compression mode                         : Lossy
Delay relative to video                  : 1s 300ms
Stream size                              : 378 MiB (24%)
Alignment                                : Split accross interleaves
Interleave, duration                     : 42 ms (1.00 video frame)
Interleave, preload duration             : 500 ms



Descargas

(Click en la imágen para descargar)






Contraseña: MecF

Más Películas:

Descargar G.I. Joe: El Origen de Cobra [DVDRip][Latino][2009][MediaFire-JumboFiles-PutLocker] Pelicula Gratis


24-sep-2012
andr3519
White User
Re: G.I. Joe: El Origen de Cobra [DVDRip][Latino][2009][MediaFire-JumboFiles-PutLocker]
Gracias, descargando
27-sep-2012
andr3519
White User
Re: G.I. Joe: El Origen de Cobra [DVDRip][Latino][2009][MediaFire-JumboFiles-PutLocker]
Me falto la ultima parte, la estaba descargando y murieron los links :'c

Necesitás estar Registrado para dejar comentarios en G.I. Joe: El Origen de Cobra [DVDRip][Latino][2009][MediaFire-JumboFiles-PutLocker]

Información del Post