Inframundo 1 [DVDRip][Latino][2003][MF-JF-PL]


Descargar Inframundo 1 [DVDRip][Latino][2003][MF-JF-PL] Película Gratis 1 link



Argentina Warez » Descargas Gratis » Películas Gratis Inframundo 1 [DVDRip][Latino][2003][MF-JF-PL]
23-jul-2012
MecF
Premier User
Inframundo 1 [DVDRip][Latino][2003][MF-JF-PL]
Inframundo [DVDRip][Latino][2003] Por MediaFire, JumboFiles y PutLocker



Sinopsis:
Durante siglos existe una guerra oculta a los humanos. Vampiros y hombres-lobo luchan por la supervivencia, donde la humanidad sólo sirve como alimento para estos seres. Pero un humano es la piedra angular para la supervivencia de una de estas especies.

Datos del Ripeo:
Spoiler


Código:
General
Complete name                            : Infrmdn_1_Lat.avi
Format                                   : AVI
Format/Info                              : Audio Video Interleave
File size                                : 711 MiB
Duration                                 : 2h 1mn
Overall bit rate                         : 820 Kbps
Writing application                      : VirtualDubMod 1.5.10.2 (build 2540/release)
Writing library                          : VirtualDubMod build 2540/release

Video
ID                                       : 0
Format                                   : MPEG-4 Visual
Format profile                           : Advanced Simple@L5
Format settings, BVOP                    : 1
Format settings, QPel                    : No
Format settings, GMC                     : No warppoints
Format settings, Matrix                  : Custom
Codec ID                                 : XVID
Codec ID/Hint                            : XviD
Duration                                 : 2h 1mn
Bit rate                                 : 683 Kbps
Width                                    : 512 pixels
Height                                   : 384 pixels
Display aspect ratio                     : 4:3
Frame rate                               : 23.976 fps
Color space                              : YUV
Chroma subsampling                       : 4:2:0
Bit depth                                : 8 bits
Scan type                                : Progressive
Compression mode                         : Lossy
Bits/(Pixel*Frame)                       : 0.145
Stream size                              : 592 MiB (83%)
Writing library                          : XviD 1.2.0.dev47 (UTC 2006-11-01)

Audio
ID                                       : 1
Format                                   : MPEG Audio
Format version                           : Version 1
Format profile                           : Layer 3
Codec ID                                 : 55
Codec ID/Hint                            : MP3
Duration                                 : 2h 0mn
Bit rate mode                            : Constant
Bit rate                                 : 128 Kbps
Channel(s)                               : 2 channels
Sampling rate                            : 48.0 KHz
Compression mode                         : Lossy
Delay relative to video                  : 24ms
Stream size                              : 111 MiB (16%)
Alignment                                : Aligned on interleaves
Interleave, duration                     : 42 ms (1.00 video frame)
Interleave, preload duration             : 504 ms



Descargas

(Click en la imágen para descargar)






Contraseña: MecF

Más Películas:

Descargar Inframundo 1 [DVDRip][Latino][2003][MF-JF-PL] Pelicula Gratis


23-jul-2012
ioivaaannn
Premier User
Re: Inframundo 1 [DVDRip][Latino][2003][MF-JF-PL]
Gracias
24-jul-2012
MecF
Premier User
Re: Inframundo 1 [DVDRip][Latino][2003][MF-JF-PL]
Iniciado por ioivaaannn
Gracias
Gracias a ti por pasarte y comentar

Necesitás estar Registrado para dejar comentarios en Inframundo 1 [DVDRip][Latino][2003][MF-JF-PL]

Información del Post