Sueño de Fuga [DVDRip][Latino][1994][MediaFire-RapidShare-PutLocker]


Descargar Sueño de Fuga [DVDRip][Latino][1994][MediaFire-RapidShare-PutLocker] Película Gratis 1 link



Argentina Warez » Descargas Gratis » Películas Gratis Sueño de Fuga [DVDRip][Latino][1994][MediaFire-RapidShare-PutLocker]
24-jul-2012
MecF
Premier User
Sueño de Fuga [DVDRip][Latino][1994][MediaFire-RapidShare-PutLocker]
Sueño de Fuga [DVDRip][Latino][1994] Por MediaFire, Rapidshare y PutLocker



Sinopsis:
cusado del asesinato de su mujer, Andrew Dufresne (Tim Robbins), tras ser condenado a cadena perpetua, es enviado a la prisión de Shawshank. Con el paso de los años conseguirá ganarse la confianza del director del centro y el respeto de sus compañeros presidiarios, especialmente de Red (Morgan Freeman), el jefe de la mafia de los sobornos.

Datos del Ripeo:
Spoiler


Código:
General
Complete name                            : /disco3/spastrek/public_html/rapidleech/files/Descargas-Directas/La_Fga_De_Sos_Lat.avi
Format                                   : AVI
Format/Info                              : Audio Video Interleave
File size                                : 700 MiB
Duration                                 : 2h 22mn
Overall bit rate mode                    : Variable
Overall bit rate                         : 687 Kbps
Writing application                      : VirtualDubMod 1.5.4.1 (build 2178/release)
Writing library                          : VirtualDubMod build 2178/release

Video
ID                                       : 0
Format                                   : MPEG-4 Visual
Format profile                           : Advanced Simple@L5
Format settings, BVOP                    : 1
Format settings, QPel                    : No
Format settings, GMC                     : No warppoints
Format settings, Matrix                  : Custom
Codec ID                                 : XVID
Codec ID/Hint                            : XviD
Duration                                 : 2h 22mn
Bit rate                                 : 560 Kbps
Width                                    : 720 pixels
Height                                   : 416 pixels
Display aspect ratio                     : 16:9
Frame rate                               : 23.976 fps
Color space                              : YUV
Chroma subsampling                       : 4:2:0
Bit depth                                : 8 bits
Scan type                                : Progressive
Compression mode                         : Lossy
Bits/(Pixel*Frame)                       : 0.078
Stream size                              : 570 MiB (81%)
Writing library                          : XviD 1.2.1 (UTC 2008-12-04)

Audio
ID                                       : 1
Format                                   : MPEG Audio
Format version                           : Version 1
Format profile                           : Layer 3
Mode                                     : Joint stereo
Mode extension                           : MS Stereo
Codec ID                                 : 55
Codec ID/Hint                            : MP3
Duration                                 : 2h 22mn
Bit rate mode                            : Variable
Bit rate                                 : 115 Kbps
Nominal bit rate                         : 128 Kbps
Channel(s)                               : 2 channels
Sampling rate                            : 48.0 KHz
Compression mode                         : Lossy
Stream size                              : 117 MiB (17%)
Alignment                                : Aligned on interleaves
Interleave, duration                     : 24 ms (0.58 video frame)
Interleave, preload duration             : 160 ms
Writing library                          : LAME3.97 
Encoding settings                        : -m j -V 4 -q 2 -lowpass 17 --abr 128



Descargas

(Click en la imágen para descargar)






Contraseña: MecF

Más Películas:

Descargar Sueño de Fuga [DVDRip][Latino][1994][MediaFire-RapidShare-PutLocker] Pelicula Gratis



Necesitás estar Registrado para dejar comentarios en Sueño de Fuga [DVDRip][Latino][1994][MediaFire-RapidShare-PutLocker]

Información del Post