Argentina Warez » Descargas Gratis » Películas Gratis La Inveción de Hugo Cabret [DVDRip][Latino][2011][MF-RS-PL]
24-jul-2012
MecF
Premier User
La Inveción de Hugo Cabret [DVDRip][Latino][2011][MF-RS-PL]
La Inveción de Hugo Cabret [DVDRip][Latino][2011] Por MediaFire, RapidShare y PutLocker



Sinopsis:
conoceremos a Hugo, un niño huérfano, relojero y ladrón que vive entre los muros de una ajetreada estación de trenes parisina. Nadie sabe de su existencia hasta que le descubre una excéntrica niña junto a la que vivirá una increíble aventura.

Datos del Ripeo:
Spoiler


Código:
General
Complete name                            : La_Invncn_De_Hgo_Cbrt_Lat.avi
Format                                   : AVI
Format/Info                              : Audio Video Interleave
File size                                : 703 MiB
Duration                                 : 2h 6mn
Overall bit rate                         : 778 Kbps
Movie name                               : Hugo.2011.DVDRip.LATiNO.XviD
Director                                 : WwW.IntercambiosVirtuales.ORG
Genre                                    : Aventuras
Recorded date                            : 19-02-2012
Writing application                      : VirtualDubMod 1.5.10.2 (build 2542/release)
Writing library                          : VirtualDubMod build 2542/release
Copyright                                : 

Video
ID                                       : 0
Format                                   : MPEG-4 Visual
Format profile                           : Advanced Simple@L5
Format settings, BVOP                    : 2
Format settings, QPel                    : No
Format settings, GMC                     : No warppoints
Format settings, Matrix                  : Default (H.263)
Codec ID                                 : XVID
Codec ID/Hint                            : XviD
Duration                                 : 2h 6mn
Bit rate                                 : 641 Kbps
Width                                    : 640 pixels
Height                                   : 352 pixels
Display aspect ratio                     : 16:9
Frame rate                               : 23.976 fps
Color space                              : YUV
Chroma subsampling                       : 4:2:0
Bit depth                                : 8 bits
Scan type                                : Progressive
Compression mode                         : Lossy
Bits/(Pixel*Frame)                       : 0.119
Stream size                              : 579 MiB (82%)
Writing library                          : XviD 1.2.1 (UTC 2008-12-04)

Audio
ID                                       : 1
Format                                   : MPEG Audio
Format version                           : Version 1
Format profile                           : Layer 3
Mode                                     : Joint stereo
Mode extension                           : MS Stereo
Codec ID                                 : 55
Codec ID/Hint                            : MP3
Duration                                 : 2h 6mn
Bit rate mode                            : Constant
Bit rate                                 : 128 Kbps
Channel(s)                               : 2 channels
Sampling rate                            : 48.0 KHz
Compression mode                         : Lossy
Stream size                              : 116 MiB (16%)
Alignment                                : Aligned on interleaves
Interleave, duration                     : 42 ms (1.00 video frame)
Interleave, preload duration             : 504 ms
Writing library                          : LAME3.98r
Encoding settings                        : -m j -V 4 -q 2 -lowpass 17 -b 128



Descargas

(Click en la imágen para descargar)






Contraseña: MecF

Más Películas:

Descargar La Inveción de Hugo Cabret [DVDRip][Latino][2011][MF-RS-PL] Pelicula Gratis



Necesitás estar Registrado para dejar comentarios en La Inveción de Hugo Cabret [DVDRip][Latino][2011][MF-RS-PL]

Información del Post