La leyenda de la Nahuala [DVDRip][Latino][2007][MF-RS-PL]


Descargar La leyenda de la Nahuala [DVDRip][Latino][2007][MF-RS-PL] Película Gratis 1 link



Argentina Warez » Descargas Gratis » Películas Gratis La leyenda de la Nahuala [DVDRip][Latino][2007][MF-RS-PL]
24-jul-2012
MecF
Premier User
La leyenda de la Nahuala [DVDRip][Latino][2007][MF-RS-PL]
La leyenda de la Nahuala [DVDRip][Latino][2007] Por MediaFire, RapidShare y PutLocker



Sinopsis:
Leo San Juan, un inseguro niño de nueve años de edad, vive eternamente asustado por las historias de terror que le cuenta Nando, su hermano mayor. Dentro de estas historias está La Leyenda de la Nahuala, según la cual, una vieja Casona abandonada se encuentra poseída por el espíritu de una malvada bruja conocida como la Nahuala, quien está esperando el alma de un niño inocente para resucitar y obtener poder absoluto. La Leyenda se vuelve realidad cuando el espíritu de la Nahuala secuestra a Nando ante los ojos de Leo.

Datos del Ripeo:
Spoiler


Código:
General
Complete name                            : Lynd_de_Nhu_Lat.avi
Format                                   : AVI
Format/Info                              : Audio Video Interleave
File size                                : 700 MiB
Duration                                 : 1h 24mn
Overall bit rate mode                    : Variable
Overall bit rate                         : 1 161 Kbps
Writing application                      : VirtualDubMod 1.5.4.1 (build 2178/release)
Writing library                          : VirtualDubMod build 2178/release

Video
ID                                       : 0
Format                                   : MPEG-4 Visual
Format profile                           : Advanced Simple@L5
Format settings, BVOP                    : 1
Format settings, QPel                    : No
Format settings, GMC                     : No warppoints
Format settings, Matrix                  : Custom
Codec ID                                 : XVID
Codec ID/Hint                            : XviD
Duration                                 : 1h 24mn
Bit rate                                 : 1 031 Kbps
Width                                    : 720 pixels
Height                                   : 416 pixels
Display aspect ratio                     : 16:9
Frame rate                               : 23.976 fps
Color space                              : YUV
Chroma subsampling                       : 4:2:0
Bit depth                                : 8 bits
Scan type                                : Progressive
Compression mode                         : Lossy
Bits/(Pixel*Frame)                       : 0.144
Stream size                              : 622 MiB (89%)
Writing library                          : XviD 1.2.0.dev47 (UTC 2006-11-01)

Audio
ID                                       : 1
Format                                   : MPEG Audio
Format version                           : Version 1
Format profile                           : Layer 3
Mode                                     : Joint stereo
Mode extension                           : MS Stereo
Codec ID                                 : 55
Codec ID/Hint                            : MP3
Duration                                 : 1h 24mn
Bit rate mode                            : Variable
Bit rate                                 : 117 Kbps
Nominal bit rate                         : 128 Kbps
Channel(s)                               : 2 channels
Sampling rate                            : 48.0 KHz
Compression mode                         : Lossy
Stream size                              : 70.6 MiB (10%)
Alignment                                : Aligned on interleaves
Interleave, duration                     : 24 ms (0.58 video frame)
Interleave, preload duration             : 157 ms
Writing library                          : LAME3.97
Encoding settings                        : -m j -V 4 -q 2 -lowpass 17 --abr 128
Language                                 : Spanish



Descargas

(Click en la imágen para descargar)






Contraseña: MecF

Más Películas:

Descargar La leyenda de la Nahuala [DVDRip][Latino][2007][MF-RS-PL] Pelicula Gratis


06-ago-2012
eljaqc
White User
Re: La leyenda de la Nahuala [DVDRip][Latino][2007][MF-RS-PL]
gracias d parte d mi niña ya tenia rato buscandola
18-ago-2012
MecF
Premier User
Re: La leyenda de la Nahuala [DVDRip][Latino][2007][MF-RS-PL]
Iniciado por eljaqc
gracias d parte d mi niña ya tenia rato buscandola
Gracias amigo, por pasarte y comentar
05-sep-2012
espectro360
Premier User
Re: La leyenda de la Nahuala [DVDRip][Latino][2007][MF-RS-PL]
grasias por la pelicula La leyenda de la Nahualala andaba buscando +10
05-sep-2012
Warez®
Moderador General
Re: La leyenda de la Nahuala [DVDRip][Latino][2007][MF-RS-PL]
Gracias por el aporte!!
08-sep-2012
MecF
Premier User
Re: La leyenda de la Nahuala [DVDRip][Latino][2007][MF-RS-PL]
Iniciado por espectro360
grasias por la pelicula La leyenda de la Nahualala andaba buscando +10
Gracias, me alegro de que sea la que estabas buscando

Iniciado por KannabisWarez
Gracias por el aporte!!
¡No hay de qué! gracias a ti por pasarte y comentar
12-may-2014
aceciliaq
White User
Re: La leyenda de la Nahuala [DVDRip][Latino][2007][MF-RS-PL]
ya no estan los links verdad?
Hace 2 Semanas
pegaso14445
White User
Re: La leyenda de la Nahuala [DVDRip][Latino][2007][MF-RS-PL]
Gracias
Hace 2 Semanas
mavhuray
White User
Re: La leyenda de la Nahuala [DVDRip][Latino][2007][MF-RS-PL]
amigo, muchas gracias por el aporte pero podrias ayudarme con esto:

This Domain Name Has Expired - Renewal Instructions....

Necesitás estar Registrado para dejar comentarios en La leyenda de la Nahuala [DVDRip][Latino][2007][MF-RS-PL]

Información del Post