Dragon Ball Evolution [DVDRip][Latino][2006][MF-RS-PL]


Descargar Dragon Ball Evolution [DVDRip][Latino][2006][MF-RS-PL] Película Gratis 1 link por Mega y Mediafire



Argentina Warez » Descargas Gratis » Películas Gratis Dragon Ball Evolution [DVDRip][Latino][2006][MF-RS-PL]
24-jul-2012
MecF
Premier User
Dragon Ball Evolution [DVDRip][Latino][2006][MF-RS-PL]
Dragon Ball Evolution [DVDRip][Latino][2006] Por MediaFire, RapidShare y PutLocker



Sinopsis:
La aventura de Goku (Justin Chatwin)–con nada menos que el destino de nuestro mundo en juego– comienza de forma bastante inocente en el exterior de la casa de su abuelo, donde Gohan está adiestrando al joven en unas exóticas técnicas marciales. Goku cumple ese día 18 años, y el regalo de Gohan a su nieto es una Bola de Dragón, una esfera pequeña y redonda cuya superficie es blanda y anacarada pero con una blanca translucidez que le proporciona profundidad. Cuatro estrellas flotan en el interior de la esfera. Sólo existen seis más como ella en el mundo, y se dice que cuando las siete Bolas de Dragón están juntas pueden conceder cualquier deseo a quien las posee.

Datos del Ripeo:
Spoiler


Código:
General
Complete name                            : Drgn_Bll_Evlnt_Lat.avi
Format                                   : AVI
Format/Info                              : Audio Video Interleave
File size                                : 688 MiB
Duration                                 : 1h 25mn
Overall bit rate                         : 1 127 Kbps
Writing application                      : VirtualDubMod 1.5.10.2 (build 2540/release)
Writing library                          : VirtualDubMod build 2540/release

Video
ID                                       : 0
Format                                   : MPEG-4 Visual
Format profile                           : Advanced Simple@L5
Format settings, BVOP                    : 1
Format settings, QPel                    : No
Format settings, GMC                     : No warppoints
Format settings, Matrix                  : Custom
Codec ID                                 : XVID
Codec ID/Hint                            : XviD
Duration                                 : 1h 25mn
Bit rate                                 : 957 Kbps
Width                                    : 704 pixels
Height                                   : 288 pixels
Display aspect ratio                     : 2.40:1
Frame rate                               : 23.976 fps
Color space                              : YUV
Chroma subsampling                       : 4:2:0
Bit depth                                : 8 bits
Scan type                                : Progressive
Compression mode                         : Lossy
Bits/(Pixel*Frame)                       : 0.197
Stream size                              : 585 MiB (85%)
Writing library                          : XviD 1.2.1 (UTC 2008-12-04)

Audio
ID                                       : 1
Format                                   : AC-3
Format/Info                              : Audio Coding 3
Mode extension                           : CM (complete main)
Codec ID                                 : 2000
Duration                                 : 1h 25mn
Bit rate mode                            : Constant
Bit rate                                 : 160 Kbps
Channel(s)                               : 2 channels
Channel positions                        : Front: L R
Sampling rate                            : 48.0 KHz
Bit depth                                : 16 bits
Compression mode                         : Lossy
Delay relative to video                  : 50ms
Stream size                              : 97.7 MiB (14%)
Alignment                                : Split accross interleaves
Interleave, duration                     : 42 ms (1.00 video frame)
Interleave, preload duration             : 500 ms
Language                                 : Spanish



Descargas

(Click en la imágen para descargar)






Contraseña: MecF

Más Películas:

Descargar Dragon Ball Evolution [DVDRip][Latino][2006][MF-RS-PL] Pelicula Gratis


10-ago-2012
cnstnza
New User
Re: Dragon Ball Evolution [DVDRip][Latino][2006][MF-RS-PL]
graciaaaaas, quiero comprobar que tan mala dicen que es jajaja, gracias te pasaste =)
10-ago-2012
Mattius123
White User
Re: Dragon Ball Evolution [DVDRip][Latino][2006][MF-RS-PL]
gracias a ver que tal

Necesitás estar Registrado para dejar comentarios en Dragon Ball Evolution [DVDRip][Latino][2006][MF-RS-PL]

Información del Post