Detrás de las paredes [DVDRip][Latino][2011][MF-RS-PL]


Descargar Detrás de las paredes [DVDRip][Latino][2011][MF-RS-PL] Película Gratis 1 link por Mega y Mediafire



Argentina Warez » Descargas Gratis » Películas Gratis Detrás de las paredes [DVDRip][Latino][2011][MF-RS-PL]
24-jul-2012
MecF
Premier User
Detrás de las paredes [DVDRip][Latino][2011][MF-RS-PL]
Detrás de las paredes [DVDRip][Latino][2011] Por MediaFire, RapidShare y PutLocker



Sinopsis:
Cuando Will comienza a investigar, no está seguro de si está empezando a ver fantasmas o es que la trágica historia le resulta demasiado cercana. Las únicas pistas provienen de Ann Patterson (Watts), una misteriosa vecina que conocía a los desaparecidos. Mientras Will y Ann van encajando las piezas del inquietante puzzle, tienen que descubrir quién asesinó a la familia en la casa de ensueño de Will antes de que vuelva a matar.

Datos del Ripeo:
Spoiler


Código:
General
Complete name                            : Drm_Hs_Lat.avi
Format                                   : AVI
Format/Info                              : Audio Video Interleave
File size                                : 696 MiB
Duration                                 : 1h 31mn
Overall bit rate                         : 1 058 Kbps
Movie name                               : Dream.House.2011.DVDRip.LATiNO.XviD-SPARKS
Director                                 : WwW.IntercambiosVirtuales.ORG
Genre                                    : Thriller
Recorded date                            : 19-01-2012
Writing application                      : VirtualDubMod 1.5.10.2 (build 2542/release)
Writing library                          : VirtualDubMod build 2542/release
Copyright                                : WwW.IntercambiosVirtuales.ORG

Video
ID                                       : 0
Format                                   : MPEG-4 Visual
Format profile                           : Advanced Simple@L5
Format settings, BVOP                    : 2
Format settings, QPel                    : No
Format settings, GMC                     : No warppoints
Format settings, Matrix                  : Default (H.263)
Codec ID                                 : XVID
Codec ID/Hint                            : XviD
Duration                                 : 1h 31mn
Bit rate                                 : 921 Kbps
Width                                    : 608 pixels
Height                                   : 256 pixels
Display aspect ratio                     : 2.40:1
Frame rate                               : 23.976 fps
Color space                              : YUV
Chroma subsampling                       : 4:2:0
Bit depth                                : 8 bits
Scan type                                : Progressive
Compression mode                         : Lossy
Bits/(Pixel*Frame)                       : 0.247
Stream size                              : 606 MiB (87%)
Writing library                          : XviD 61

Audio
ID                                       : 1
Format                                   : MPEG Audio
Format version                           : Version 1
Format profile                           : Layer 3
Mode                                     : Joint stereo
Mode extension                           : MS Stereo
Codec ID                                 : 55
Codec ID/Hint                            : MP3
Duration                                 : 1h 31mn
Bit rate mode                            : Constant
Bit rate                                 : 128 Kbps
Channel(s)                               : 2 channels
Sampling rate                            : 48.0 KHz
Compression mode                         : Lossy
Stream size                              : 84.2 MiB (12%)
Alignment                                : Aligned on interleaves
Interleave, duration                     : 42 ms (1.00 video frame)
Interleave, preload duration             : 504 ms
Writing library                          : LAME3.98r
Encoding settings                        : -m j -V 4 -q 2 -lowpass 17 -b 128



Descargas

(Click en la imágen para descargar)






Contraseña: MecF

Más Películas:

Descargar Detrás de las paredes [DVDRip][Latino][2011][MF-RS-PL] Pelicula Gratis



Necesitás estar Registrado para dejar comentarios en la descarga Detrás de las paredes [DVDRip][Latino][2011][MF-RS-PL]

Información del Post