Arthur Christmas: Operacion Regalo [DVDScreener][Latino][2011][MF-RS-PL]


Descargar Arthur Christmas: Operacion Regalo [DVDScreener][Latino][2011][MF-RS-PL] Película Gratis 1 link por Mega y Mediafire



Argentina Warez » Descargas Gratis » Películas Gratis Arthur Christmas: Operacion Regalo [DVDScreener][Latino][2011][MF-RS-PL]
25-jul-2012
MecF
Premier User
Arthur Christmas: Operacion Regalo [DVDScreener][Latino][2011][MF-RS-PL]
Arthur Christmas: Operacion Regalo [DVDScrener][Latino][2011] Por MediaFire, RapidShare y PutLocker



Sinopsis:
La comedia familiar “Arthur Christmas: Operación Regalo” revela la increíble respuesta, hasta ahora nunca descubierta, a la pregunta que todos los niños se plantean: “¿cómo reparte Santa Claus todos los regalos en una sola noche?” La solución está en la apasionante operación secreta de alta tecnológica que se lleva a cabo bajo el Polo Norte. El tema central de la película es una historia con todos los ingredientes de un clásico de la Navidad, una divertida familia desorganizada y un inesperado héroe: el hijo más joven de Santa Claus, Arthur. De repente, en la gran operación de reparto de regalos se pierde uno entre los cientos de millones de presentes. Es entonces cuando el Santa Claus menos competente se embarca en una divertida y emocionante misión a contrarreloj para entregar el último paquete antes de que amanezca.

Datos del Ripeo:
Spoiler


Código:
General
Complete name                            : Arthr_Chrsm_La.avi
Format                                   : AVI
Format/Info                              : Audio Video Interleave
File size                                : 700 MiB
Duration                                 : 1h 37mn
Overall bit rate                         : 1 004 Kbps
Movie name                               : Arthur.Christmas.2011.DVDScr.latino.by_almacervecera
Director                                 : by almacervecera
Original source form/Distributed by      : quierowarez
Writing application                      : VirtualDubMod 1.5.10.2 (build 2540/release)
Writing library                          : VirtualDubMod build 2540/release
Copyright                                : 

Video
ID                                       : 0
Format                                   : MPEG-4 Visual
Format profile                           : Advanced Simple@L5
Format settings, BVOP                    : 2
Format settings, QPel                    : No
Format settings, GMC                     : No warppoints
Format settings, Matrix                  : Default (MPEG)
Codec ID                                 : XVID
Codec ID/Hint                            : XviD
Duration                                 : 1h 37mn
Bit rate                                 : 802 Kbps
Width                                    : 704 pixels
Height                                   : 376 pixels
Display aspect ratio                     : 1.872
Frame rate                               : 23.976 fps
Color space                              : YUV
Chroma subsampling                       : 4:2:0
Bit depth                                : 8 bits
Scan type                                : Progressive
Compression mode                         : Lossy
Bits/(Pixel*Frame)                       : 0.126
Stream size                              : 560 MiB (80%)
Writing library                          : XviD 64

Audio
ID                                       : 1
Format                                   : MPEG Audio
Codec ID                                 : 55
Codec ID/Hint                            : MP3
Duration                                 : 1h 37mn
Bit rate                                 : 192 Kbps
Channel(s)                               : 2 channels
Sampling rate                            : 48.0 KHz
Compression mode                         : Lossy
Stream size                              : 134 MiB (19%)
Alignment                                : Split accross interleaves
Interleave, duration                     : 42 ms (1.00 video frame)
Interleave, preload duration             : 504 ms



Descargas
(Click en la imágen para descargar)






Contraseña: MecF

Más Películas:

Descargar Arthur Christmas: Operacion Regalo [DVDScreener][Latino][2011][MF-RS-PL] Pelicula Gratis


25-jul-2012
scb77
White User
Re: Arthur Christmas: Operacion Regalo [DVDRip][Latino][2011][MF-RS-PL]
que mierda no es la pelicula que perdida de tiempo!!!!
25-jul-2012
jfo22stafe
Black User
Re: Arthur Christmas: Operacion Regalo [DVDRip][Latino][2011][MF-RS-PL]
no la descargen es un fake mas grande que una casa
25-jul-2012
enilmo
White User
Re: Arthur Christmas: Operacion Regalo [DVDRip][Latino][2011][MF-RS-PL]
Gracias por avisar no le veo la gracia mecf
25-jul-2012
MecF
Premier User
Re: Arthur Christmas: Operacion Regalo [DVDRip][Latino][2011][MF-RS-PL]
Película Arreglada, pueden ver las capturas y los datos en el spoiler donde dice: Ripeo

Necesitás estar Registrado para dejar comentarios en Arthur Christmas: Operacion Regalo [DVDScreener][Latino][2011][MF-RS-PL]

Información del Post


Posts relacionados con Arthur Christmas: Operacion Regalo [DVDScreener][Latino][2011][MF-RS-PL]