Dr Seuss: The Lorax (BRRip | Subs | 1 Link | BS/UL | 2012)


Descargar Dr Seuss: The Lorax (BRRip | Subs | 1 Link | BS/UL | 2012) Película Gratis 1 link



Argentina Warez » Descargas Gratis » Películas Gratis Dr Seuss: The Lorax (BRRip | Subs | 1 Link | BS/UL | 2012)
26-jul-2012
JonUp
Premier User
Dr Seuss: The Lorax (BRRip | Subs | 1 Link | BS/UL | 2012)



Código:
DIRECTOR Chris Renaud GUIÓN Cinco Paul, Ken Daurio (Historia: Dr. Seuss) MÚSICA John Powell FOTOGRAFÍA Animation REPARTO Animation PRODUCTORA Universal Pictures / Illumination Entertainment GÉNERO Animación. Comedia. Fantástico | 3-D

Código:
Un chico se propone conquistar el afecto de la chica de sus sueños. Para conseguirlo, debe averiguar la historia del Lorax, una encantadora aunque gruñona criatura que lucha por proteger un mundo en vías de extinción. Con voces de Danny DeVito (The Lorax), Ed Helms (The Once-ler), Zac Efron (Ted), Taylor Swift (Audrey) y Betty White (Grammy Norma).



Código:
Format : AVI Format/Info : Audio Video Interleave File size : 696 MiB Duration : 1h 26mn Overall bit rate : 1 127 Kbps Video ID : 0 Format : MPEG-4 Visual Format profile : Advanced Simple@L5 Format settings, BVOP : 2 Format settings, QPel : No Format settings, GMC : No warppoints Format settings, Matrix : Default (H.263) Codec ID : XVID Codec ID/Hint : XviD Duration : 1h 26mn Bit rate : 994 Kbps Width : 640 pixels Height : 352 pixels Display aspect ratio : 16:9 Frame rate : 23.976 fps Color space : YUV Chroma subsampling : 4:2:0 Bit depth : 8 bits Scan type : Progressive Compression mode : Lossy Bits/(Pixel*Frame) : 0.184 Stream size : 613 MiB (88%) Writing library : XviD 1.2.1 (UTC 2008-12-04) Audio ID : 1 Format : MPEG Audio Format version : Version 1 Format profile : Layer 3 Mode : Joint stereo Codec ID : 55 Codec ID/Hint : MP3 Duration : 1h 26mn Bit rate mode : Constant Bit rate : 128 Kbps Channel(s) : 2 channels Sampling rate : 48.0 KHz Compression mode : Lossy Stream size : 79.0 MiB (11%) Alignment : Aligned on interleaves Interleave, duration : 167 ms (4.00 video frames) Interleave, preload duration : 216 ms Title : The.Lorax.2012.720p Writing library : LAME3.99r Encoding settings : -m j -V 4 -q 2 -lowpass 17 -b 128


Subtitulos:
Código:
http://www34.zippyshare.com/v/95505025/file.html

Código:
http://linkto.net/?4641737750116f9b1aa123.54044205

Código:
http://linkto.net/?118417134250115880722a86.56232651

Descargar Dr Seuss: The Lorax (BRRip | Subs | 1 Link | BS/UL | 2012) Pelicula Gratis



Necesitás estar Registrado para dejar comentarios en Dr Seuss: The Lorax (BRRip | Subs | 1 Link | BS/UL | 2012)

Información del Post