DareDevil [DVDRip][Latino][2003][MF-PL-JF-RS]


Descargar DareDevil [DVDRip][Latino][2003][MF-PL-JF-RS] Película Gratis 1 link



Argentina Warez » Descargas Gratis » Películas Gratis DareDevil [DVDRip][Latino][2003][MF-PL-JF-RS]
28-jul-2012
MecF
Premier User
DareDevil [DVDRip][Latino][2003][MF-PL-JF-RS]
DareDevil [DVDRip][Latino][2003] Por MediaFire, RapidShare y PutLocker



Sinopsis:
Durante el día, Matt Murdock es un abogado, ciego desde la infancia. Pero de noche, Murdock se convierte en Daredevil, un justiciero empeñado en acabar con la delincuencia de las calles de su barrio de New York, y obsesionado con vengar la muerte de su padre asesinado a manos de su peor enemigo, Kingpin.

Datos del Ripeo:
Spoiler


Código:
General
Complete name                            : Dre_Dvl_La.avi
Format                                   : AVI
Format/Info                              : Audio Video Interleave
File size                                : 557 MiB
Duration                                 : 1h 43mn
Overall bit rate                         : 752 Kbps
Writing library                          : MPlayer

Video
ID                                       : 0
Format                                   : MPEG-4 Visual
Format profile                           : Simple@L1
Format settings, BVOP                    : No
Format settings, QPel                    : No
Format settings, GMC                     : No warppoints
Format settings, Matrix                  : Default (H.263)
Codec ID                                 : DX50
Codec ID/Hint                            : DivX 5
Duration                                 : 1h 43mn
Bit rate                                 : 579 Kbps
Width                                    : 600 pixels
Height                                   : 272 pixels
Display aspect ratio                     : 2.2:1
Frame rate                               : 29.970 fps
Color space                              : YUV
Chroma subsampling                       : 4:2:0
Bit depth                                : 8 bits
Scan type                                : Interlaced
Scan order                               : Top Field First
Compression mode                         : Lossy
Bits/(Pixel*Frame)                       : 0.118
Stream size                              : 429 MiB (77%)
Writing library                          : Lavc52.0.0

Audio
ID                                       : 1
Format                                   : MPEG Audio
Format version                           : Version 1
Format profile                           : Layer 3
Mode                                     : Joint stereo
Mode extension                           : MS Stereo
Codec ID                                 : 55
Codec ID/Hint                            : MP3
Duration                                 : 1h 43mn
Bit rate mode                            : Constant
Bit rate                                 : 160 Kbps
Channel(s)                               : 2 channels
Sampling rate                            : 44.1 KHz
Compression mode                         : Lossy
Stream size                              : 118 MiB (21%)
Alignment                                : Aligned on interleaves
Interleave, duration                     : 26 ms (0.78 video frame)
Interleave, preload duration             : 809 ms
Writing library                          : LAME3.97



Descargas

(Click en la imágen para descargar)






Contraseña: MecF

Más Películas:

Descargar DareDevil [DVDRip][Latino][2003][MF-PL-JF-RS] Pelicula Gratis



Necesitás estar Registrado para dejar comentarios en DareDevil [DVDRip][Latino][2003][MF-PL-JF-RS]

Información del Post