Iron Man: 2 [DVDRip][Latino][2010][MF-PL-JF-RS]


Descargar Iron Man: 2 [DVDRip][Latino][2010][MF-PL-JF-RS] Película Gratis 1 link por Mega y Mediafire



Argentina Warez » Descargas Gratis » Películas Gratis Iron Man: 2 [DVDRip][Latino][2010][MF-PL-JF-RS]
28-jul-2012
MecF
Premier User
Iron Man: 2 [DVDRip][Latino][2010][MF-PL-JF-RS]
Iron Man: 2 [DVDRip][Latino][2010] Por MediaFire, RapidShare y PutLocker



Sinopsis:
El mundo ya sabe que el multimillonario Tony Stark (Robert Downey Jr.) es Iron Man, el superhéroe enmascarado. A pesar de las presiones del gobierno, la prensa y la opinión pública para que comparta su tecnología con el ejército, Tony es reacio a desvelar los secretos de la armadura de Iron Man, porque teme que esa información caiga en en manos de irresponsables. Con Pepper Potts (Gwyneth Paltrow) y James “Rhodey” Rhodes (Don Cheadle) a su lado, Tony forja alianzas nuevas y se enfrenta a nuevas y poderosas fuerzas.

Datos del Ripeo:
Spoiler


Código:
General
Complete name                            : Inr_Mn_2_La.avi
Format                                   : AVI
Format/Info                              : Audio Video Interleave
File size                                : 821 MiB
Duration                                 : 2h 4mn
Overall bit rate                         : 920 Kbps
Writing application                      : VirtualDubMod 1.5.10.2 (build 2542/release)
Writing library                          : VirtualDubMod build 2542/release

Video
ID                                       : 0
Format                                   : MPEG-4 Visual
Format profile                           : Advanced Simple@L5
Format settings, BVOP                    : 2
Format settings, QPel                    : No
Format settings, GMC                     : No warppoints
Format settings, Matrix                  : Default (H.263)
Codec ID                                 : XVID
Codec ID/Hint                            : XviD
Duration                                 : 2h 4mn
Bit rate                                 : 783 Kbps
Width                                    : 640 pixels
Height                                   : 272 pixels
Display aspect ratio                     : 2.35:1
Frame rate                               : 23.976 fps
Color space                              : YUV
Chroma subsampling                       : 4:2:0
Bit depth                                : 8 bits
Scan type                                : Progressive
Compression mode                         : Lossy
Bits/(Pixel*Frame)                       : 0.188
Stream size                              : 698 MiB (85%)
Writing library                          : XviD 1.2.1 (UTC 2008-12-04)

Audio
ID                                       : 1
Format                                   : MPEG Audio
Format version                           : Version 1
Format profile                           : Layer 3
Codec ID                                 : 55
Codec ID/Hint                            : MP3
Duration                                 : 2h 4mn
Bit rate mode                            : Constant
Bit rate                                 : 128 Kbps
Channel(s)                               : 2 channels
Sampling rate                            : 48.0 KHz
Compression mode                         : Lossy
Stream size                              : 114 MiB (14%)
Alignment                                : Aligned on interleaves
Interleave, duration                     : 42 ms (1.00 video frame)
Interleave, preload duration             : 504 ms
Writing library                          : LAME3.98r
Encoding settings                        : -m s -V 4 -q 2 -lowpass 17 -b 128



Descargas

(Click en la imágen para descargar)






Contraseña: MecF

Más Películas:

Descargar Iron Man: 2 [DVDRip][Latino][2010][MF-PL-JF-RS] Pelicula Gratis


03-ago-2012
jolgom
White User
Re: Iron Man: 2 [DVDRip][Latino][2010][MF-PL-JF-RS]
amigo buen post, buena imagen. buen entretenimiento
04-ago-2012
MecF
Premier User
Re: Iron Man: 2 [DVDRip][Latino][2010][MF-PL-JF-RS]
Iniciado por jolgom
amigo buen post, buena imagen. buen entretenimiento
Gracias amigo por pasarte y comentar

Necesitás estar Registrado para dejar comentarios en Iron Man: 2 [DVDRip][Latino][2010][MF-PL-JF-RS]

Información del Post